Love Actually (2003) m-1080p Dual Latino-Inglés [Subt. Esp-Ing] (Romance. Comedia)

Maestro Revolver

Well-known member
Miembro del Staff
Administrador
Registro
9 Ago 2012
Mensajes
3.569
Reacciones
59.341
Puntos
113

Reputation:









TÍTULO ORIGINAL: Love Actually
AÑO: 2003
DURACIÓN: 128 min.
PAÍS: Reino Unido
DIRECTOR: Richard Curtis
GUIÓN: Richard Curtis
REPARTO: Hugh Grant, Liam Neeson, Colin Firth, Laura Linney, Emma Thompson, Alan Rickman, Keira Knightley, Bill Nighy, Chiwetel Ejiofor, Andrew Lincoln, Thomas Brodie-Sangster, Rodrigo Santoro, Rowan Atkinson, Billy Bob Thornton, Martine McCutcheon, Heike Makatsh, Lucia Moniz, Martin Freeman, Gregor Fisher, Joanna Page, Sienna Guillory, Elisha Cuthbert, Kris Marshall, Claudia Schiffer, Shannon Elizabeth, Denise Richards, January Jones, Ivana Milicevic, Olivia Olson
PRODUCTORA: Coproducción GB-USA; Universal Pictures / Working Title Films / DNA Films
GÉNERO: Romance. Comedia | Comedia romántica. Navidad. Historias cruzadas
: http://www.imdb.com/title/tt0314331/






En Londres, poco antes de las Navidades, se entrelazan una serie de historias divertidas y conmovedoras. "Love, Actually" es una manera abreviada de decir “Love Actually Is All Around” y éste es precisamente el argumento de la película: mires a donde mires, encontrarás el amor en todas partes. Todos los personajes, cada uno a su manera (un primer ministro, una vieja estrella del rock, una asistenta portuguesa que sólo habla su idioma), están relacionados con los aspectos más divertidos, tristes, ingenuos y estúpidos del amor.
























La pelicula NO tiene ninguna marca... solo colocamos el nombre de esta web en las capturas






Código:
General
Format                                   : Matroska
Format version                           : Version 2
File size                                : 5.39 GiB
Duration                                 : 2h 14mn
Overall bit rate                         : 5 726 Kbps
Movie name                               : www.club-hd.com
Encoded date                             : UTC 2012-12-10 23:45:45
Writing application                      : mkvmerge v5.7.0 ('The Whirlwind') built on Jul  8 2012 20:08:51
Writing library                          : libebml v1.2.3 + libmatroska v1.3.0

Video
ID                                       : 1
Format                                   : AVC
Format/Info                              : Advanced Video Codec
Format profile                           : Main@L4.0
Format settings, CABAC                   : Yes
Format settings, ReFrames                : 4 frames
Codec ID                                 : V_MPEG4/ISO/AVC
Duration                                 : 2h 14mn
Bit rate                                 : 4 500 Kbps
Width                                    : 1 920 pixels
Height                                   : 816 pixels
Display aspect ratio                     : 2.35:1
Frame rate mode                          : Constant
Frame rate                               : 23.976 fps
Color space                              : YUV
Chroma subsampling                       : 4:2:0
Bit depth                                : 8 bits
Scan type                                : Progressive
Bits/(Pixel*Frame)                       : 0.120
Stream size                              : 4.08 GiB (76%)
Title                                    : www.club-hd.com
Writing library                          : x264 core 112
Language                                 : English
Default                                  : Yes
Forced                                   : No
Color primaries                          : BT.709
Transfer characteristics                 : BT.709
Matrix coefficients                      : BT.709

Audio #1
ID                                       : 2
Format                                   : AC-3
Format/Info                              : Audio Coding 3
Mode extension                           : CM (complete main)
Format settings, Endianness              : Big
Codec ID                                 : A_AC3
Duration                                 : 2h 14mn
Bit rate mode                            : Constant
Bit rate                                 : 640 Kbps
Channel(s)                               : 6 channels
Channel positions                        : Front: L C R, Side: L R, LFE
Sampling rate                            : 48.0 KHz
Bit depth                                : 16 bits
Compression mode                         : Lossy
Stream size                              : 617 MiB (11%)
Title                                    : www.club-hd.com  >>  Latino
Language                                 : Spanish
Default                                  : Yes
Forced                                   : No

Audio #2
ID                                       : 3
Format                                   : AC-3
Format/Info                              : Audio Coding 3
Mode extension                           : CM (complete main)
Format settings, Endianness              : Big
Codec ID                                 : A_AC3
Duration                                 : 2h 14mn
Bit rate mode                            : Constant
Bit rate                                 : 640 Kbps
Channel(s)                               : 6 channels
Channel positions                        : Front: L C R, Side: L R, LFE
Sampling rate                            : 48.0 KHz
Bit depth                                : 16 bits
Compression mode                         : Lossy
Stream size                              : 617 MiB (11%)
Title                                    : www.club-hd.com  >>  Inglés
Language                                 : English
Default                                  : No
Forced                                   : No

Text #1
ID                                       : 4
Format                                   : UTF-8
Codec ID                                 : S_TEXT/UTF8
Codec ID/Info                            : UTF-8 Plain Text
Language                                 : Spanish
Default                                  : No
Forced                                   : No

Text #2
ID                                       : 5
Format                                   : UTF-8
Codec ID                                 : S_TEXT/UTF8
Codec ID/Info                            : UTF-8 Plain Text
Language                                 : English
Default                                  : No
Forced                                   : No

Menu
00:00:00.000                             : en:Chapter 1
00:09:46.460                             : en:Chapter 2
00:15:09.491                             : en:Chapter 3
00:22:43.362                             : en:Chapter 4
00:29:48.495                             : en:Chapter 5
00:36:42.533                             : en:Chapter 6
00:44:21.533                             : en:Chapter 7
00:51:24.247                             : en:Chapter 8
00:58:23.500                             : en:Chapter 9
01:06:27.441                             : en:Chapter 10
01:09:28.330                             : en:Chapter 11
01:15:55.259                             : en:Chapter 12
01:23:32.590                             : en:Chapter 13
01:28:46.612                             : en:Chapter 14
01:36:44.799                             : en:Chapter 15
01:45:01.878                             : en:Chapter 16
01:51:38.983                             : en:Chapter 17
01:58:19.008                             : en:Chapter 18
02:05:34.735                             : en:Chapter 19
02:06:42.595                             : en:Chapter 20




Sin Contraseña | Simple Extracción





Links Intercambiables





Enlaces de Mega y Fireload solo disponibles para Miembros VIP

Compra tu Membresía VIP y apoya a Club-HD!

ATENCIÓN! Tenemos TODO el material de Club-HD disponible por Mega y Fireload, enlaces 100% activos y online hasta la fecha

Llévate tus cuentas Mega PRO II gratis con tu membresía VIP!
Todos los posts vivos con links de Mega y Fireload.
Todo el material de Club-HD desbloqueado y sin publicidad.

Click Aquí para más información.




Enlaces de Mega y Fireload solo disponibles para Miembros VIP

Compra tu Membresía VIP y apoya a Club-HD!

ATENCIÓN! Tenemos TODO el material de Club-HD disponible por Mega y Fireload, enlaces 100% activos y online hasta la fecha

Llévate tus cuentas Mega PRO II gratis con tu membresía VIP!
Todos los posts vivos con links de Mega y Fireload.
Todo el material de Club-HD desbloqueado y sin publicidad.

Click Aquí para más información.


Enlaces de Mega y Fireload solo disponibles para Miembros VIP

Compra tu Membresía VIP y apoya a Club-HD!

ATENCIÓN! Tenemos TODO el material de Club-HD disponible por Mega y Fireload, enlaces 100% activos y online hasta la fecha

Llévate tus cuentas Mega PRO II gratis con tu membresía VIP!
Todos los posts vivos con links de Mega y Fireload.
Todo el material de Club-HD desbloqueado y sin publicidad.

Click Aquí para más información.


Para ver este contenido oculto, debes dar click en una de las siguientes reacciones : Like Like, Love Love, Haha Haha, Wow Wow, Sad Sad, Angry Angry


Para ver este contenido oculto, debes dar click en una de las siguientes reacciones : Like Like, Love Love, Haha Haha, Wow Wow, Sad Sad, Angry Angry


Para ver este contenido oculto, debes dar click en una de las siguientes reacciones : Like Like, Love Love, Haha Haha, Wow Wow, Sad Sad, Angry Angry
 
Última edición:

eljumachi

Well-known member
Miembro VIP
Registro
27 Ago 2012
Mensajes
2.174
Reacciones
338
Puntos
83

Reputation:

comedia que bueno a bajar a cuenta gotas porque se me termino la cuenta premium, saludos R-21 y gracias
 

NeoGoku

Member
Registro
7 Sep 2012
Mensajes
602
Reacciones
7
Puntos
18
Edad
58

Reputation:

ah muy buena movie, pefecta para la mujer, gracias
 

Mate78

Ladron de mi cerebro
Miembro del Staff
Súper Moderador
Registro
27 Ago 2012
Mensajes
1.235
Reacciones
918
Puntos
113

Reputation:

espectacular , felicitaciones por el nuevo servidor de descarga , a probar se a dicho ,graciassss bestia !!!:dplgar:
 

brunillo

New member
Registro
28 Ago 2012
Mensajes
47
Reacciones
1
Puntos
0

Reputation:

Revolver idolo! hay alguna posibilidad que la suba en 720p? es demasiado pesada en 1080 para mi abarrotado disco rígido jeje...
 

elgrandario

Well-known member
Registro
29 Ago 2012
Mensajes
1.006
Reacciones
147
Puntos
63
Ubicación
Lima, Perú

Reputation:

Precisa la pela romanticona. Como para abrigar la fría noche limeña. Gracias amigos del club! Gracias R21! Siempre con las mejores pelas.
 

Usuarios Que Están Viendo Este Tema (Total: 1, Miembros: 0, Invitados: 1)

Arriba