Lovelace (2013) 720p BDRip Audio Inglés [Subt. Esp] (Drama)

Maestro Revolver

Administrador
Registro
9 Ago 2012
Mensajes
3.157
Reacciones (ptje)
54.886


Lovelace.jpg




FichaTecnica.jpg


TÍTULO ORIGINAL: Lovelace
AÑO: 2013
DURACIÓN: 93 min.
PAÍS: USA
DIRECTOR: Rob Epstein, Jeffrey Friedman
GUIÓN: W. Merritt Johnson, Andy Bellin
REPARTO: Amanda Seyfried, Peter Sarsgaard, Sharon Stone, Juno Temple, Wes Bentley, Hank Azaria, Bobby Cannavale, Chris Noth, Robert Patrick, James Franco, Eric Roberts, Adam Brody, Debi Mazar, Cory Hardrict, Chloe Sevigny
PRODUCTORA: Animus Films / Eclectic Pictures / Millennium Films
GÉNERO: Drama | Biográfico. Cine dentro del cine. Cine independiente USA
imdb-logo.png
: http://www.imdb.com/title/tt1426329/




Sinopsis.jpg


Linda Lovelace es conocida principalmente por el notorio éxito de taquilla de la película porno de 1972, 'Garganta Profunda'. Más tarde, cuando dejó el negocio del porno, la actriz se divorció de Chuck Traynor y recuperó su verdadero nombre: Linda Boreman. Además, acusó a su exmarido de haberla obligado a prostituirse y dedicarse a la pornografía, recurriendo a todo tipo de violencia e incluso al hipnotismo.




Trailer.jpg






Capturas.jpg


1.jpg


2.jpg


3.jpg


4.jpg


5.jpg


6.jpg


La pelicula NO tiene ninguna marca... solo colocamos el nombre de esta web en las capturas




MediaInfo.jpg


Código:
General
Format                                   : Matroska
Format version                           : Version 2
File size                                : 3.80 GiB
Duration                                 : 1h 32mn
Overall bit rate                         : 5 865 Kbps
Movie name                               : www.club-hd.com
Encoded date                             : UTC 2013-10-12 15:16:16
Writing application                      : mkvmerge v5.7.0 ('The Whirlwind') built on Jul  8 2012 20:08:51
Writing library                          : libebml v1.2.3 + libmatroska v1.3.0

Video
ID                                       : 1
Format                                   : AVC
Format/Info                              : Advanced Video Codec
Format profile                           : [email protected]
Format settings, CABAC                   : Yes
Format settings, ReFrames                : 5 frames
Codec ID                                 : V_MPEG4/ISO/AVC
Duration                                 : 1h 32mn
Bit rate                                 : 5 229 Kbps
Width                                    : 1 280 pixels
Height                                   : 696 pixels
Display aspect ratio                     : 1.85:1
Frame rate mode                          : Constant
Frame rate                               : 23.976 fps
Color space                              : YUV
Chroma subsampling                       : 4:2:0
Bit depth                                : 8 bits
Scan type                                : Progressive
Bits/(Pixel*Frame)                       : 0.245
Stream size                              : 3.31 GiB (87%)
Title                                    : www.club-hd.com
Writing library                          : x264 core 133 r2334 a3ac64b
Language                                 : English
Default                                  : Yes
Forced                                   : No

Audio
ID                                       : 2
Format                                   : AC-3
Format/Info                              : Audio Coding 3
Mode extension                           : CM (complete main)
Format settings, Endianness              : Big
Codec ID                                 : A_AC3
Duration                                 : 1h 32mn
Bit rate mode                            : Constant
Bit rate                                 : 640 Kbps
Channel(s)                               : 6 channels
Channel positions                        : Front: L C R, Side: L R, LFE
Sampling rate                            : 48.0 KHz
Bit depth                                : 16 bits
Compression mode                         : Lossy
Stream size                              : 425 MiB (11%)
Title                                    : www.club-hd.com
Language                                 : English
Default                                  : Yes
Forced                                   : No

Text
ID                                       : 3
Format                                   : UTF-8
Codec ID                                 : S_TEXT/UTF8
Codec ID/Info                            : UTF-8 Plain Text
Title                                    : www.club-hd.com
Language                                 : Spanish
Default                                  : Yes
Forced                                   : No

Menu
00:00:00.000                             : en:00:00:00.000
00:07:01.129                             : en:00:07:01.129
00:14:09.057                             : en:00:14:09.057
00:19:23.621                             : en:00:19:23.621
00:25:14.471                             : en:00:25:14.471
00:30:04.761                             : en:00:30:04.761
00:38:55.124                             : en:00:38:55.124
00:45:05.703                             : en:00:45:05.703
00:51:05.062                             : en:00:51:05.062
00:57:02.628                             : en:00:57:02.628
01:03:56.124                             : en:01:03:56.124
01:11:08.764                             : en:01:11:08.764
01:19:39.692                             : en:01:19:39.692
01:25:55.901                             : en:01:25:55.901




Descarga.jpg



MEGA.jpg

Tenemos TODO el material de Club-HD disponible por Mega, enlaces 100% activos y online hasta la fecha

Llévate tus cuentas Mega PRO III gratis con tu membresía VIP!
Todos los posts vivos con links de Mega.
Todo el material de Club-HD desbloqueado y sin publicidad.

Obtén más información sobre nuestras Membresías VIP


UPLOADED_BANNER.png

Para ver este contenido oculto, debes dar click en el botón"Like", o cualquiera de las otras reacciones:

Me Gusta Me Gusta, Me Encanta Me Encanta, Jaja Jaja, Wow Wow, Triste Triste, Molesto Molesto



 
Última edición por un moderador:
Volver