Lucas (1986) 720p BDRip Dual Latino-Inglés [Subt. Esp] (Comedia. Drama)

Maestro Revolver

Well-known member
Miembro del Staff
Administrador
Registro
9 Ago 2012
Mensajes
3.567








TÍTULO ORIGINAL: Lucas
AÑO: 1986
DURACIÓN: 100 min.
PAÍS: USA
DIRECTOR: David Seltzer
GUIÓN: David Seltzer
REPARTO: Corey Haim, Winona Ryder, Charlie Sheen, Kerri Green, Courtney Thorne-Smith, Thoms E. Hodges
PRODUCTORA: 20th Century Fox
GÉNERO: Comedia. Drama | Adolescencia. Comedia dramática. Rugby
: http://www.imdb.com/title/tt0091445/






Lucas es un joven superdotado de 14 años que se enamora de una adolescente dos años mayor que él. Lucas, cuya inteligencia le permite adelantar sus estudios para ir a la universidad, tiene problemas de integración con el resto de los jóvenes, pero al igual que los chicos de su edad sólo piensa en el amor a su chica, aunque ella es más madura que él y le gustan los chicos mayores.
























La pelicula NO tiene ninguna marca... solo colocamos el nombre de esta web en las capturas






Código:
General
Format                                   : Matroska
Format version                           : Version 2
File size                                : 4.50 GiB
Duration                                 : 1h 39mn
Overall bit rate                         : 6 471 Kbps
Movie name                               : www.club-hd.com
Encoded date                             : UTC 2013-07-31 03:29:42
Writing application                      : mkvmerge v5.7.0 ('The Whirlwind') built on Jul  8 2012 20:08:51
Writing library                          : libebml v1.2.3 + libmatroska v1.3.0

Video
ID                                       : 1
Format                                   : AVC
Format/Info                              : Advanced Video Codec
Format profile                           : High@L4.1
Format settings, CABAC                   : Yes
Format settings, ReFrames                : 5 frames
Codec ID                                 : V_MPEG4/ISO/AVC
Duration                                 : 1h 39mn
Bit rate                                 : 5 640 Kbps
Width                                    : 1 280 pixels
Height                                   : 696 pixels
Display aspect ratio                     : 1.85:1
Frame rate mode                          : Constant
Frame rate                               : 23.976 fps
Color space                              : YUV
Chroma subsampling                       : 4:2:0
Bit depth                                : 8 bits
Scan type                                : Progressive
Bits/(Pixel*Frame)                       : 0.264
Stream size                              : 3.83 GiB (85%)
Title                                    : www.club-hd.com
Writing library                          : x264 core 135 r2345kMod f0c1c53
Language                                 : English
Default                                  : Yes
Forced                                   : No

Audio #1
ID                                       : 2
Format                                   : AC-3
Format/Info                              : Audio Coding 3
Mode extension                           : CM (complete main)
Format settings, Endianness              : Big
Codec ID                                 : A_AC3
Duration                                 : 1h 39mn
Bit rate mode                            : Constant
Bit rate                                 : 192 Kbps
Channel(s)                               : 2 channels
Channel positions                        : Front: L R
Sampling rate                            : 48.0 KHz
Bit depth                                : 16 bits
Compression mode                         : Lossy
Delay relative to video                  : 600ms
Stream size                              : 137 MiB (3%)
Title                                    : www.club-hd.com  >>  Latino
Language                                 : Spanish
Default                                  : Yes
Forced                                   : No

Audio #2
ID                                       : 3
Format                                   : AC-3
Format/Info                              : Audio Coding 3
Mode extension                           : CM (complete main)
Format settings, Endianness              : Big
Codec ID                                 : A_AC3
Duration                                 : 1h 39mn
Bit rate mode                            : Constant
Bit rate                                 : 640 Kbps
Channel(s)                               : 6 channels
Channel positions                        : Front: L C R, Side: L R, LFE
Sampling rate                            : 48.0 KHz
Bit depth                                : 16 bits
Compression mode                         : Lossy
Stream size                              : 456 MiB (10%)
Title                                    : www.club-hd.com  >>  Inglés
Language                                 : English
Default                                  : No
Forced                                   : No

Text
ID                                       : 4
Format                                   : UTF-8
Codec ID                                 : S_TEXT/UTF8
Codec ID/Info                            : UTF-8 Plain Text
Language                                 : Spanish
Default                                  : No
Forced                                   : No

Menu
00:00:00.000                             : en:00:00:00.000
00:10:11.319                             : en:00:10:11.319
00:21:57.983                             : en:00:21:57.983
00:33:09.196                             : en:00:33:09.196
00:41:57.181                             : en:00:41:57.181
00:49:57.077                             : en:00:49:57.077
01:01:37.402                             : en:01:01:37.402
01:10:30.309                             : en:01:10:30.309
01:20:43.964                             : en:01:20:43.964
01:29:49.509                             : en:01:29:49.509
01:37:20.418                             : en:01:37:20.418








Enlaces de Mega y Google Drive solo disponibles para Miembros VIP

Compra tu Membresía VIP y apoya a Club-HD!

ATENCIÓN! Tenemos TODO el material de Club-HD disponible por Mega y Google Drive, enlaces 100% activos y online hasta la fecha

Llévate tus cuentas Mega PRO III gratis con tu membresía VIP!
Todos los posts vivos con links de Mega y Google Drive.
Todo el material de Club-HD desbloqueado y sin publicidad.

Click Aquí para más información.


Para ver este contenido oculto, debes dar click en una de las siguientes reacciones : Like Like, Love Love, Haha Haha, Wow Wow, Sad Sad, Angry Angry



 
Última edición por un moderador:

zacygal

Well-known member
Registro
3 Sep 2012
Mensajes
1.515
Edad
50
Que tal grupo de actores y en sus inicios, es de la época mas o menos de Johnny be Good o Weird Science también muy buenas ...
Grax Revolver muy buena
 

Bernal

Well-known member
Registro
28 Ago 2012
Mensajes
1.485
hace años q la vi ya ni recuerdo como era jejej gracias por la peli
 

Usuarios Que Están Viendo Este Tema (Total: 1, Miembros: 0, Invitados: 1)

Quién Leyó Este Tema (Total Miembros: 3)

Arriba