Mad Max Beyond Thunderdome (1985) 1080p BDRip Dual Latino-Inglés [Subt. Esp] (Acción. Ciencia ficción)

Maestro Revolver

Well-known member
Miembro del Staff
Administrador
Registro
9 Ago 2012
Mensajes
3.567








TÍTULO ORIGINAL: Mad Max Beyond Thunderdome
AÑO: 1985
DURACIÓN: 109 min.
PAÍS: Australia
DIRECTOR: George Miller, George Ogilvie
GUIÓN: Terry Hayes, George Miller
REPARTO: Mel Gibson, Tina Turner, Bruce Spence, Adam Cockburn, Frank Thring, Paul Larsson, Robert Grubb, George Spartels, Edwin Hodgeman, Bob Hornery, Angelo Rossitto
PRODUCTORA: Warner Bros. Pictures
GÉNERO: Acción. Ciencia ficción | Western futurista. Road Movie. Holocausto nuclear. Futuro postapocalíptico
: http://www.imdb.com/title/tt0089530/






Tras la catástrofe nuclear, Mad Max cruza un desierto donde pierde su caravana de camellos. Llega a una ciudad donde le proponen cambiárselos a cambio de que ataque al tirano de la ciudad subterránea, un enano que fabrica gas metano con excrementos de cerdo.
























La pelicula NO tiene ninguna marca... solo colocamos el nombre de esta web en las capturas






Código:
General
Format                                   : Matroska
Format version                           : Version 2
File size                                : 8.27 GiB
Duration                                 : 1h 46mn
Overall bit rate                         : 11.1 Mbps
Movie name                               : www.club-hd.com
Encoded date                             : UTC 2013-09-27 05:07:34
Writing application                      : mkvmerge v5.7.0 ('The Whirlwind') built on Jul  8 2012 20:08:51
Writing library                          : libebml v1.2.3 + libmatroska v1.3.0

Video
ID                                       : 1
Format                                   : AVC
Format/Info                              : Advanced Video Codec
Format profile                           : High@L4.1
Format settings, CABAC                   : Yes
Format settings, ReFrames                : 5 frames
Codec ID                                 : V_MPEG4/ISO/AVC
Duration                                 : 1h 46mn
Bit rate                                 : 8 725 Kbps
Width                                    : 1 920 pixels
Height                                   : 800 pixels
Display aspect ratio                     : 2.40:1
Frame rate mode                          : Constant
Frame rate                               : 23.976 fps
Color space                              : YUV
Chroma subsampling                       : 4:2:0
Bit depth                                : 8 bits
Scan type                                : Progressive
Bits/(Pixel*Frame)                       : 0.237
Stream size                              : 6.36 GiB (77%)
Title                                    : www.club-hd.com
Writing library                          : x264 core 133 r2334 a3ac64b
Language                                 : English
Default                                  : Yes
Forced                                   : No

Audio #1
ID                                       : 2
Format                                   : AC-3
Format/Info                              : Audio Coding 3
Mode extension                           : CM (complete main)
Format settings, Endianness              : Big
Codec ID                                 : A_AC3
Duration                                 : 1h 46mn
Bit rate mode                            : Constant
Bit rate                                 : 192 Kbps
Channel(s)                               : 1 channel
Channel positions                        : Front: C
Sampling rate                            : 48.0 KHz
Bit depth                                : 16 bits
Compression mode                         : Lossy
Stream size                              : 147 MiB (2%)
Title                                    : www.club-hd.com  >>  Latino AC3
Language                                 : Spanish
Default                                  : Yes
Forced                                   : No

Audio #2
ID                                       : 3
Format                                   : AC-3
Format/Info                              : Audio Coding 3
Mode extension                           : CM (complete main)
Format settings, Endianness              : Big
Codec ID                                 : A_AC3
Duration                                 : 1h 46mn
Bit rate mode                            : Constant
Bit rate                                 : 640 Kbps
Channel(s)                               : 6 channels
Channel positions                        : Front: L C R, Side: L R, LFE
Sampling rate                            : 48.0 KHz
Bit depth                                : 16 bits
Compression mode                         : Lossy
Stream size                              : 490 MiB (6%)
Title                                    : www.club-hd.com  >>  Inglés AC3
Language                                 : English
Default                                  : No
Forced                                   : No

Audio #3
ID                                       : 4
Format                                   : DTS
Format/Info                              : Digital Theater Systems
Mode                                     : 16
Format settings, Endianness              : Big
Codec ID                                 : A_DTS
Duration                                 : 1h 46mn
Bit rate mode                            : Constant
Bit rate                                 : 1 509 Kbps
Channel(s)                               : 6 channels
Channel positions                        : Front: L C R, Side: L R, LFE
Sampling rate                            : 48.0 KHz
Bit depth                                : 24 bits
Compression mode                         : Lossy
Stream size                              : 1.13 GiB (14%)
Title                                    : www.club-hd.com  >>  Inglés DTS
Language                                 : English
Default                                  : No
Forced                                   : No

Text
ID                                       : 5
Format                                   : UTF-8
Codec ID                                 : S_TEXT/UTF8
Codec ID/Info                            : UTF-8 Plain Text
Language                                 : Spanish
Default                                  : No
Forced                                   : No

Menu
00:00:00.000                             : en:00:00:00.000
00:09:55.762                             : en:00:09:55.762
00:20:06.414                             : en:00:20:06.414
00:30:31.663                             : en:00:30:31.663
00:40:04.527                             : en:00:40:04.527
00:50:45.042                             : en:00:50:45.042
01:02:00.717                             : en:01:02:00.717
01:11:21.277                             : en:01:11:21.277
01:20:12.224                             : en:01:20:12.224
01:30:58.036                             : en:01:30:58.036
01:42:03.617                             : en:01:42:03.617







Enlaces de Mega y Google Drive solo disponibles para Miembros VIP

Compra tu Membresía VIP y apoya a Club-HD!

ATENCIÓN! Tenemos TODO el material de Club-HD disponible por Mega y Google Drive, enlaces 100% activos y online hasta la fecha

Llévate tus cuentas Mega PRO III gratis con tu membresía VIP!
Todos los posts vivos con links de Mega y Google Drive.
Todo el material de Club-HD desbloqueado y sin publicidad.

Click Aquí para más información.

Enlaces de Mega y Google Drive solo disponibles para Miembros VIP

Compra tu Membresía VIP y apoya a Club-HD!

ATENCIÓN! Tenemos TODO el material de Club-HD disponible por Mega y Google Drive, enlaces 100% activos y online hasta la fecha

Llévate tus cuentas Mega PRO III gratis con tu membresía VIP!
Todos los posts vivos con links de Mega y Google Drive.
Todo el material de Club-HD desbloqueado y sin publicidad.

Click Aquí para más información.

Para ver este contenido oculto, debes dar click en una de las siguientes reacciones : Like Like, Love Love, Haha Haha, Wow Wow, Sad Sad, Angry Angry

Para ver este contenido oculto, debes dar click en una de las siguientes reacciones : Like Like, Love Love, Haha Haha, Wow Wow, Sad Sad, Angry Angry

Para ver este contenido oculto, debes dar click en una de las siguientes reacciones : Like Like, Love Love, Haha Haha, Wow Wow, Sad Sad, Angry Angry


Código:
www.club-hd.com
 
Última edición por un moderador:

DoomsDay Elite

Well-known member
Registro
5 Sep 2012
Mensajes
1.222
pelicula que le rinde tributo al gran max xD gracias master revo y max por traer estas peliculas del gran mel :aplausos:
 

Usuarios Que Están Viendo Este Tema (Total: 1, Miembros: 0, Invitados: 1)

Quién Leyó Este Tema (Total Miembros: 4)

Arriba