Madonna - MDNA World Tour (2013) 720p BDRip [AC3 - DTS 5.1] (Concierto)

Maestro Revolver

Miembro del Staff
Administrador
Registro
9 Ago 2012
Mensajes
3.157








Dirigido por Danny B. Tull y Stephane Sennour y producido por Madonna, el show está montado a partir de los conciertos que la cantante ofreció en Miami los días 19 y 20 de noviembre de 2012. También se incluye un pequeño documental que muestra las horas antes del directo.



Track List:

1.Virgin Mary (Intro)
2.Girl Gone Wild
3.Revolver
4.Gang Bang
5.Papa Don't Preach
6.Hung Up
7.I Don't Give A
8.Best Friend (Video Interlude)
9.Express Yourself
10.Give Me All Your Luvin'
11.Turn Up The Radio
12.Open Your Heart
13.Masterpiece
14.Justify My Love (Video Interlude)
15.Vogue
16.Erotic Candy Shop
17.Human Nature
18.Like A Virgin Waltz
19.Love Spent
20.Nobody Knows Me (Video Interlude)
21.I'm Addicted
22.I'm A Sinner
23.Like A Prayer
24.Celebration





























Código:
General
Format                                   : Matroska
Format version                           : Version 2
File size                                : 8.45 GiB
Duration                                 : 1h 59mn
Overall bit rate                         : 10.1 Mbps
Movie name                               : www.club-hd.com
Encoded date                             : UTC 2013-10-20 17:24:59
Writing application                      : mkvmerge v5.7.0 ('The Whirlwind') built on Jul  8 2012 20:08:51
Writing library                          : libebml v1.2.3 + libmatroska v1.3.0

Video
ID                                       : 1
Format                                   : AVC
Format/Info                              : Advanced Video Codec
Format profile                           : High@L4.1
Format settings, CABAC                   : Yes
Format settings, ReFrames                : 9 frames
Codec ID                                 : V_MPEG4/ISO/AVC
Duration                                 : 1h 59mn
Bit rate                                 : 7 962 Kbps
Width                                    : 1 280 pixels
Height                                   : 720 pixels
Display aspect ratio                     : 16:9
Frame rate mode                          : Constant
Frame rate                               : 23.976 fps
Color space                              : YUV
Chroma subsampling                       : 4:2:0
Bit depth                                : 8 bits
Scan type                                : Progressive
Bits/(Pixel*Frame)                       : 0.360
Stream size                              : 6.49 GiB (77%)
Title                                    : www.club-hd.com
Writing library                          : x264 core 138 r2358 9e941d1
Language                                 : English
Default                                  : Yes
Forced                                   : No

Audio #1
ID                                       : 2
Format                                   : DTS
Format/Info                              : Digital Theater Systems
Mode                                     : 16
Format settings, Endianness              : Big
Codec ID                                 : A_DTS
Duration                                 : 1h 59mn
Bit rate mode                            : Constant
Bit rate                                 : 1 509 Kbps
Channel(s)                               : 2 channels
Channel positions                        : Front: L R
Sampling rate                            : 48.0 KHz
Bit depth                                : 24 bits
Compression mode                         : Lossy
Stream size                              : 1.26 GiB (15%)
Title                                    : English DTS 2.0 1509Kbps
Language                                 : English
Default                                  : Yes
Forced                                   : No

Audio #2
ID                                       : 3
Format                                   : AC-3
Format/Info                              : Audio Coding 3
Mode extension                           : CM (complete main)
Format settings, Endianness              : Big
Codec ID                                 : A_AC3
Duration                                 : 1h 59mn
Bit rate mode                            : Constant
Bit rate                                 : 640 Kbps
Channel(s)                               : 2 channels
Channel positions                        : Front: L R
Sampling rate                            : 48.0 KHz
Bit depth                                : 16 bits
Compression mode                         : Lossy
Stream size                              : 548 MiB (6%)
Title                                    : AC3
Language                                 : English
Default                                  : No
Forced                                   : No

Menu
00:00:00.000                             : en:Opening
00:02:52.005                             : en:Virgin Mary (Intro)
00:06:12.414                             : en:Girl Gone Wild
00:10:08.399                             : en:Revolver
00:14:04.469                             : en:Gang Bang
00:19:56.529                             : en:Papa Don't Preach
00:21:32.249                             : en:Hung Up
00:25:29.403                             : en:I Don't Give A
00:31:01.651                             : en:Best Friend (Video Interlude)
00:34:22.519                             : en:Express Yourself
00:38:24.594                             : en:Give Me All Your Luvin'
00:41:37.245                             : en:Clip1
00:42:38.598                             : en:Turn Up The Radio
00:46:46.470                             : en:Open Your Heart
00:52:49.541                             : en:CM1
00:55:27.908                             : en:Masterpiece
01:00:01.181                             : en:Justify My Love (Video Interlude)
01:03:35.020                             : en:Vogue
01:07:42.809                             : en:Erotic Candy Shop
01:12:07.865                             : en:Human Nature
01:16:35.466                             : en:Like A Virgin Waltz
01:21:48.445                             : en:Love Spent
01:26:35.857                             : en:Nobody Knows Me (Video Interlude)
01:29:35.412                             : en:I'm Addicted
01:34:54.647                             : en:I'm A Sinner
01:41:39.635                             : en:Like A Prayer
01:47:49.505                             : en:Celebration
01:53:55.412                             : en:Ending








Enlaces de Mega y Google Drive solo disponibles para Miembros VIP

Compra tu Membresía VIP y apoya a Club-HD!

ATENCIÓN! Tenemos TODO el material de Club-HD disponible por Mega y Google Drive, enlaces 100% activos y online hasta la fecha

Llévate tus cuentas Mega PRO III gratis con tu membresía VIP!
Todos los posts vivos con links de Mega y Google Drive.
Todo el material de Club-HD desbloqueado y sin publicidad.

Click Aquí para más información.



Para ver este contenido oculto, debes dar click en una de las siguientes reacciones : Like Like, Love Love, Haha Haha, Wow Wow, Sad Sad, Angry Angry

 
Última edición por un moderador:
Registro
27 Ago 2012
Mensajes
187
Edad
51
muchisimas gracias, ya extrañaba los grandes conciertos...hora de disfrutarlos..:dplgar:
 

Usuarios Que Están Viendo Este Tema (Total: 1, Miembros: 0, Invitados: 1)

Quién Leyó Este Tema (Total Miembros: 3)

Arriba