Madonna - Sticky and Sweet Tour (2009) 720p [AC3 5.1] [DTS] (Concierto)

Maestro Revolver

Well-known member
Miembro del Staff
Administrador
Registro
9 Ago 2012
Mensajes
3.569
Reacciones
59.366
Puntos
113

Reputation:








Interprete: Madonna
Artista: Madonna
Titulo: Madonna - Sticky and Sweet Tour
Año: 2009
Genero: Pop, Concierto.




"The Sticky and Sweet Tour" fue filmado en vivo en Buenos Aires, uno de los 32 países por donde pasó la gira. El tour debutó en el 2008 junto al lanzamiento del multipremiado álbum “Hard Candy”, ganador de varios Premios Grammy que debutó numero 1 en ventas en 37 países.
on hits como 4 Minutes, Vogue, Like A Prayer, Music, Like A Parayer, Give It to Me, Ray Of Light y por supuesto Don’t Cry For Me Argentina frente a una multitud de fanáticos, este show ha sido reseñado como el Mejor Show de Madonna en toda su carrera por toda la prensa mundial.



Track List:

01. Intro: The Sweet Machine
02. Candy Shop Medley
03. Beat Goes On Medley feat. Kanye West
04. Human Nature
05. Vogue 2008
06. Die Another Day 2008
07. Into The Groove 2008
08. Heartbeat
09. Borderline
10. She's Not Me
11. Music 2008
12. Rain/Here Comes The Rain Again
13. Devil Wouldn't Recognize You
14. Spanish Lesson
15. Miles Away
16. La Isla Bonita Medley
17. Me Darava/Doli Doli
18. You Must Love Me
19. Don't Cry For Me Argentina
20. Get Stupid Medley
21. 4 Minutes feat. Justin Timberlake and Timbaland
22. Like A Prayer 2008
23. Ray Of Light
24. Like A Virgin
25. Hung Up Medley
26. Give It 2 Me






























La pelicula NO tiene ninguna marca... solo coloque mi nombre de usuario en las capturas





Código:
Format                                   : Matroska
Format version                           : Version 2
File size                                : 7.11 GiB
Duration                                 : 2h 5mn
Overall bit rate                         : 8 133 Kbps
Movie name                               : www.club-hd.com
Encoded date                             : UTC 2012-06-19 00:43:20
Writing application                      : mkvmerge v5.2.1 ('A Far Off Place') built on Jan  2 2012 23:21:10
Writing library                          : libebml v1.2.3 + libmatroska v1.3.0

Video
ID                                       : 1
Format                                   : AVC
Format/Info                              : Advanced Video Codec
Format profile                           : High@L4.1
Format settings, CABAC                   : Yes
Format settings, ReFrames                : 5 frames
Muxing mode                              : Header stripping
Codec ID                                 : V_MPEG4/ISO/AVC
Duration                                 : 2h 5mn
Bit rate                                 : 5 991 Kbps
Width                                    : 1 280 pixels
Height                                   : 720 pixels
Display aspect ratio                     : 16:9
Frame rate                               : 29.970 fps
Color space                              : YUV
Chroma subsampling                       : 4:2:0
Bit depth                                : 8 bits
Scan type                                : Progressive
Bits/(Pixel*Frame)                       : 0.217
Stream size                              : 5.09 GiB (72%)
Title                                    : www.club-hd.com
Writing library                          : x264 core 92 r1510 33d382a
Language                                 : English
Default                                  : Yes
Forced                                   : No

Audio #1
ID                                       : 2
Format                                   : AC-3
Format/Info                              : Audio Coding 3
Mode extension                           : CM (complete main)
Format settings, Endianness              : Big
Muxing mode                              : Header stripping
Codec ID                                 : A_AC3
Duration                                 : 2h 5mn
Bit rate mode                            : Constant
Bit rate                                 : 640 Kbps
Channel(s)                               : 6 channels
Channel positions                        : Front: L C R, Side: L R, LFE
Sampling rate                            : 48.0 KHz
Bit depth                                : 16 bits
Compression mode                         : Lossy
Stream size                              : 573 MiB (8%)
Title                                    : www.club-hd.com  >>  Ac3 5.1, 640 Kbps
Language                                 : English
Default                                  : Yes
Forced                                   : No

Audio #2
ID                                       : 3
Format                                   : DTS
Format/Info                              : Digital Theater Systems
Muxing mode                              : Header stripping
Codec ID                                 : A_DTS
Duration                                 : 2h 5mn
Bit rate mode                            : Constant
Bit rate                                 : 1 510 Kbps
Channel(s)                               : 6 channels
Channel positions                        : Front: L C R, Side: L R, LFE
Sampling rate                            : 48.0 KHz
Bit depth                                : 24 bits
Compression mode                         : Lossy
Stream size                              : 1.32 GiB (19%)
Title                                    : www.club-hd.com  >>  Dts 5.1, 1 510 Kbps
Language                                 : English
Default                                  : No
Forced                                   : No




"DESCARGA SUBTITULOS AQUI"










Enlaces de Mega y Fireload solo disponibles para Miembros VIP

Compra tu Membresía VIP y apoya a Club-HD!

ATENCIÓN! Tenemos TODO el material de Club-HD disponible por Mega y Fireload, enlaces 100% activos y online hasta la fecha

Llévate tus cuentas Mega PRO II gratis con tu membresía VIP!
Todos los posts vivos con links de Mega y Fireload.
Todo el material de Club-HD desbloqueado y sin publicidad.

Click Aquí para más información.




Enlaces de Mega y Fireload solo disponibles para Miembros VIP

Compra tu Membresía VIP y apoya a Club-HD!

ATENCIÓN! Tenemos TODO el material de Club-HD disponible por Mega y Fireload, enlaces 100% activos y online hasta la fecha

Llévate tus cuentas Mega PRO II gratis con tu membresía VIP!
Todos los posts vivos con links de Mega y Fireload.
Todo el material de Club-HD desbloqueado y sin publicidad.

Click Aquí para más información.



Enlaces de Mega y Fireload solo disponibles para Miembros VIP

Compra tu Membresía VIP y apoya a Club-HD!

ATENCIÓN! Tenemos TODO el material de Club-HD disponible por Mega y Fireload, enlaces 100% activos y online hasta la fecha

Llévate tus cuentas Mega PRO II gratis con tu membresía VIP!
Todos los posts vivos con links de Mega y Fireload.
Todo el material de Club-HD desbloqueado y sin publicidad.

Click Aquí para más información.



Para ver este contenido oculto, debes dar click en una de las siguientes reacciones : Like Like, Love Love, Haha Haha, Wow Wow, Sad Sad, Angry Angry



Para ver este contenido oculto, debes dar click en una de las siguientes reacciones : Like Like, Love Love, Haha Haha, Wow Wow, Sad Sad, Angry Angry

 
Última edición:

Usuarios Que Están Viendo Este Tema (Total: 1, Miembros: 0, Invitados: 1)

Arriba