Magic Mike (2012) m-720p Dual Latino-Inglés [Subt. Esp-Ing] (Comedia. Drama)

Maestro Revolver

Administrador
Registro
9 Ago 2012
Mensajes
3.157
Reacciones (ptje)
54.925


Aporte Recuperado gracias a nuestra amiga Claudia

Magic-mike.jpg




FICHA_TECNICA.png


TÍTULO ORIGINAL: Magic Mike
AÑO: 2012
DURACIÓN: 110 min.
PAÍS: USA
DIRECTOR: Steven Soderbergh
GUIÓN: Reid Carolin
REPARTO: Channing Tatum, Alex Pettyfer, Matthew McConaughey, Olivia Munn, Matt Bomer, Joe Mangianello, Riley Keough, Cody Horn, Adam Rodriguez
PRODUCTORA: WB / Nick Wechsler Productions
GÉNERO: Comedia. Drama | Comedia dramática. Basado en hechos reales
imdb-logo.png
http://www.imdb.com/title/tt1915581/




SINOPSIS.png


Mike (Channing Tatum) es un joven que persiguiendo el sueño americano, y tras varios trabajos duros, se introduce en el mundo de los strippers masculinos en clubs para mujeres, todo gracias a un joven bailarín llamado The Kid (Alex Pettyfer). Allí Mike descubrirá el mundo de las fiestas con mujeres guapas, sexo fácil y dinero rápido, un mundo adictivo pero con su lado oscuro.




TRAILER.png






CAPTURAS.png


1.jpg


2.jpg


3.jpg


4.jpg


5.jpg


6.jpg


La pelicula NO tiene ninguna marca... solo colocamos el nombre de esta web en las capturas




DATOS_TECNICOS.png


Código:
General
Format                           : Matroska
Format version                   : Version 2
File size                        : 2.75 GiB
Duration                         : 1h 50mn
Overall bit rate                 : 3 562 Kbps
Movie name                       : www.club-hd.com
Encoded date                     : UTC 2012-10-22 01:27:16
Writing application              : mkvmerge v5.7.0 ('The Whirlwind') built on Jul  8 2012 20:08:51
Writing library                  : libebml v1.2.3 + libmatroska v1.3.0

Video
ID                               : 1
Format                           : AVC
Format/Info                      : Advanced Video Codec
Format profile                   : [email protected]
Format settings, CABAC           : Yes
Format settings, ReFrames        : 8 frames
Codec ID                         : V_MPEG4/ISO/AVC
Duration                         : 1h 50mn
Bit rate                         : 2 665 Kbps
Width                            : 1 280 pixels
Height                           : 536 pixels
Display aspect ratio             : 2.40:1
Frame rate                       : 23.976 fps
Color space                      : YUV
Chroma subsampling               : 4:2:0
Bit depth                        : 8 bits
Scan type                        : Progressive
Bits/(Pixel*Frame)               : 0.162
Stream size                      : 2.00 GiB (73%)
Title                            : www.club-hd.com
Writing library                  : x264 core 128 r2216 198a7ea
Language                         : English
Default                          : Yes
Forced                           : No

Audio #1
ID                               : 2
Format                           : AC-3
Format/Info                      : Audio Coding 3
Mode extension                   : CM (complete main)
Codec ID                         : A_AC3
Duration                         : 1h 50mn
Bit rate mode                    : Constant
Bit rate                         : 448 Kbps
Channel(s)                       : 6 channels
Channel positions                : Front: L C R, Side: L R, LFE
Sampling rate                    : 48.0 KHz
Bit depth                        : 16 bits
Compression mode                 : Lossy
Stream size                      : 354 MiB (13%)
Title                            : www.club-hd.com  >>  Latino
Language                         : Spanish
Default                          : Yes
Forced                           : No

Audio #2
ID                               : 3
Format                           : AC-3
Format/Info                      : Audio Coding 3
Mode extension                   : CM (complete main)
Codec ID                         : A_AC3
Duration                         : 1h 50mn
Bit rate mode                    : Constant
Bit rate                         : 448 Kbps
Channel(s)                       : 6 channels
Channel positions                : Front: L C R, Side: L R, LFE
Sampling rate                    : 48.0 KHz
Bit depth                        : 16 bits
Compression mode                 : Lossy
Stream size                      : 354 MiB (13%)
Title                            : www.club-hd.com  >>  Inglés
Language                         : English
Default                          : No
Forced                           : No

Text #1
ID                               : 4
Format                           : UTF-8
Codec ID                         : S_TEXT/UTF8
Codec ID/Info                    : UTF-8 Plain Text
Language                         : Spanish
Default                          : No
Forced                           : No

Text #2
ID                               : 5
Format                           : UTF-8
Codec ID                         : S_TEXT/UTF8
Codec ID/Info                    : UTF-8 Plain Text
Language                         : English
Default                          : No
Forced                           : No

Menu
00:00:00.000                     : en:Chapter 1
00:04:31.855                     : en:Chapter 2
00:10:30.380                     : en:Chapter 3
00:16:08.509                     : en:Chapter 4
00:21:07.183                     : en:Chapter 5
00:26:17.868                     : en:Chapter 6
00:33:15.327                     : en:Chapter 7
00:37:25.285                     : en:Chapter 8
00:42:12.155                     : en:Chapter 9
00:46:13.354                     : en:Chapter 10
00:49:47.776                     : en:Chapter 11
00:56:34.182                     : en:Chapter 12
00:59:16.428                     : en:Chapter 13
01:03:44.446                     : en:Chapter 14
01:10:29.058                     : en:Chapter 15
01:15:10.005                     : en:Chapter 16
01:19:26.970                     : en:Chapter 17
01:23:14.615                     : en:Chapter 18
01:27:13.311                     : en:Chapter 19
01:32:23.955                     : en:Chapter 20
01:37:16.873                     : en:Chapter 21
01:42:46.118                     : en:Chapter 22
01:45:58.394                     : en:Chapter 23




Descarga.png





google-drive-vip.png


Tenemos TODO el material de Club-HD disponible por Mega, enlaces 100% activos y online hasta la fecha

Llévate tus cuentas Mega PRO III gratis con tu membresía VIP!
Todos los posts vivos con links de Mega.
Todo el material de Club-HD desbloqueado y sin publicidad.

Obtén más información sobre nuestras Membresías VIP



MEGA.jpg

Tenemos TODO el material de Club-HD disponible por Mega, enlaces 100% activos y online hasta la fecha

Llévate tus cuentas Mega PRO III gratis con tu membresía VIP!
Todos los posts vivos con links de Mega.
Todo el material de Club-HD desbloqueado y sin publicidad.

Obtén más información sobre nuestras Membresías VIP


UPLOADED.TO_BANNER.png

Para ver este contenido oculto, debes dar click en el botón"Like", o cualquiera de las otras reacciones:

Me Gusta Me Gusta, Me Encanta Me Encanta, Jaja Jaja, Wow Wow, Triste Triste, Molesto Molesto
 
Última edición por un moderador:
bajando el audioooo !!!gracias DON BESTIA !!!!:dplgar:
 
Volver