Mama (2013) 1080p BDRip Dual Latino-Inglés [Subt. Esp] (Terror. Thriller)

Maestro Revolver

Well-known member
Miembro del Staff
Administrador
Registro
9 Ago 2012
Mensajes
3.567








TÍTULO ORIGINAL: Mama
AÑO: 2013
DURACIÓN: 100 min.
PAÍS: Canadá
DIRECTOR: Andrés Muschietti
GUIÓN: Andrés Muschietti, Neil Cross, Barbara Muschietti (Historia: Andrés Muschietti, Barbara Muschietti)
REPARTO: Jessica Chastain, Nikolaj Coster-Waldau, Megan Charpentier, Isabelle Nelisse, Daniel Kash, Javier Botet, Jane Moffat, Morgan McGarry, David Fox, Dominic Cuzzocrea
PRODUCTORA: Coproducción Canadá-España; De Milo / Toma 78
GÉNERO: Terror. Thriller | Sobrenatural. Fantasmas
: http://www.imdb.com/title/tt2023587/






Hace cinco años, el mismo día en que su madre fue asesinada, las pequeñas Victoria y Lilly desaparecieron en el bosque. Buscadas incansablemente por su tío Lucas (Nikolai Coster-Waldau) y su novia Annabel (Jessica Chastain), son encontradas unos años más tarde. Comienzan entonces una nueva vida de la mano de Annabel, pero pronto descubren que alguien o algo misterioso las sigue arropando por las noches.
























La pelicula NO tiene ninguna marca... solo colocamos el nombre de esta web en las capturas






Código:
General
Format                                   : Matroska
Format version                           : Version 2
File size                                : 8.55 GiB
Duration                                 : 1h 40mn
Overall bit rate                         : 12.2 Mbps
Movie name                               : www.club-hd.com
Encoded date                             : UTC 2013-04-25 22:32:58
Writing application                      : mkvmerge v5.7.0 ('The Whirlwind') built on Jul  8 2012 20:08:51
Writing library                          : libebml v1.2.3 + libmatroska v1.3.0

Video
ID                                       : 1
Format                                   : AVC
Format/Info                              : Advanced Video Codec
Format profile                           : High@L4.1
Format settings, CABAC                   : Yes
Format settings, ReFrames                : 4 frames
Codec ID                                 : V_MPEG4/ISO/AVC
Duration                                 : 1h 40mn
Bit rate                                 : 9 430 Kbps
Width                                    : 1 920 pixels
Height                                   : 1 040 pixels
Display aspect ratio                     : 1.85:1
Frame rate mode                          : Constant
Frame rate                               : 23.976 fps
Color space                              : YUV
Chroma subsampling                       : 4:2:0
Bit depth                                : 8 bits
Scan type                                : Progressive
Bits/(Pixel*Frame)                       : 0.197
Stream size                              : 6.43 GiB (75%)
Title                                    : www.club-hd.com
Writing library                          : x264 core 130 r2273 b3065e6
Language                                 : English
Default                                  : Yes
Forced                                   : No

Audio #1
ID                                       : 2
Format                                   : AC-3
Format/Info                              : Audio Coding 3
Mode extension                           : CM (complete main)
Format settings, Endianness              : Big
Codec ID                                 : A_AC3
Duration                                 : 1h 40mn
Bit rate mode                            : Constant
Bit rate                                 : 640 Kbps
Channel(s)                               : 6 channels
Channel positions                        : Front: L C R, Side: L R, LFE
Sampling rate                            : 48.0 KHz
Bit depth                                : 16 bits
Compression mode                         : Lossy
Stream size                              : 458 MiB (5%)
Title                                    : www.club-hd.com  >>  Latino AC3 5.1
Language                                 : Spanish
Default                                  : Yes
Forced                                   : No

Audio #2
ID                                       : 3
Format                                   : AC-3
Format/Info                              : Audio Coding 3
Mode extension                           : CM (complete main)
Format settings, Endianness              : Big
Codec ID                                 : A_AC3
Duration                                 : 1h 40mn
Bit rate mode                            : Constant
Bit rate                                 : 640 Kbps
Channel(s)                               : 6 channels
Channel positions                        : Front: L C R, Side: L R, LFE
Sampling rate                            : 48.0 KHz
Bit depth                                : 16 bits
Compression mode                         : Lossy
Stream size                              : 458 MiB (5%)
Title                                    : www.club-hd.com  >>  Inglés AC3 5.1
Language                                 : English
Default                                  : No
Forced                                   : No

Audio #3
ID                                       : 4
Format                                   : DTS
Format/Info                              : Digital Theater Systems
Mode                                     : 16
Format settings, Endianness              : Big
Codec ID                                 : A_DTS
Duration                                 : 1h 40mn
Bit rate mode                            : Constant
Bit rate                                 : 1 509 Kbps
Channel(s)                               : 6 channels
Channel positions                        : Front: L C R, Side: L R, LFE
Sampling rate                            : 48.0 KHz
Bit depth                                : 24 bits
Compression mode                         : Lossy
Stream size                              : 1.06 GiB (12%)
Title                                    : www.club-hd.com  >>  Inglés DTS 5.1
Language                                 : English
Default                                  : No
Forced                                   : No

Text
ID                                       : 5
Format                                   : UTF-8
Codec ID                                 : S_TEXT/UTF8
Codec ID/Info                            : UTF-8 Plain Text
Language                                 : Spanish
Default                                  : No
Forced                                   : No

Menu
00:00:00.000                             : en:00:00:00.000
00:04:57.881                             : en:00:04:57.881
00:11:47.165                             : en:00:11:47.165
00:17:33.761                             : en:00:17:33.761
00:20:51.417                             : en:00:20:51.417
00:26:08.734                             : en:00:26:08.734
00:32:02.796                             : en:00:32:02.796
00:36:53.169                             : en:00:36:53.169
00:40:12.535                             : en:00:40:12.535
00:44:43.222                             : en:00:44:43.222
00:47:35.186                             : en:00:47:35.186
00:53:04.390                             : en:00:53:04.390
00:58:55.282                             : en:00:58:55.282
01:04:38.166                             : en:01:04:38.166
01:11:00.339                             : en:01:11:00.339
01:16:49.146                             : en:01:16:49.146
01:22:00.999                             : en:01:22:00.999
01:25:14.526                             : en:01:25:14.526
01:29:15.058                             : en:01:29:15.058
01:35:29.349                             : en:01:35:29.349








Enlaces de Mega y Google Drive solo disponibles para Miembros VIP

Compra tu Membresía VIP y apoya a Club-HD!

ATENCIÓN! Tenemos TODO el material de Club-HD disponible por Mega y Google Drive, enlaces 100% activos y online hasta la fecha

Llévate tus cuentas Mega PRO III gratis con tu membresía VIP!
Todos los posts vivos con links de Mega y Google Drive.
Todo el material de Club-HD desbloqueado y sin publicidad.

Click Aquí para más información.



Para ver este contenido oculto, debes dar click en una de las siguientes reacciones : Like Like, Love Love, Haha Haha, Wow Wow, Sad Sad, Angry Angry

 
Última edición por un moderador:

nathan8

Well-known member
Registro
27 Ago 2012
Mensajes
1.767
Edad
32
mil grasias la estaba esperando en latino eres enorme revolver. muchas grasias.
 

arkkangeldark

Well-known member
Registro
27 Ago 2012
Mensajes
3.499
Edad
35
Ubicación
Torreon Coahuila
Tb_up3 excelente peli de terror, apenas había terminado de bajar la 720p en ingles pero ahora mejor me bajo esta versión, gracias revolver :aplausos:
 

MorlanGilmour

Active member
Registro
11 Sep 2012
Mensajes
472
Ubicación
Mexico
Muchísimas gracias R21 merece ser vista en la mejor calidad eres el maestro de maestros siempre trayendo lo mejor al club :D
 

Ezze

Well-known member
Miembro del Staff
Súper Moderador
Miembro VIP
Registro
28 Ago 2012
Mensajes
1.666
Ubicación
En la Torre de Observación
Que grandísimo aporte :dplgar: Espectacular para esta noche.... Pero creo que no llego a descargarla xD Tendré que verla mañana :D Saludos Revo bye
 

Usuarios Que Están Viendo Este Tema (Total: 1, Miembros: 0, Invitados: 1)

Quién Leyó Este Tema (Total Miembros: 1)

Arriba