Man of Steel (2013) 3D H-SBS 1080p BDRip Dual Latino-Inglés [Subt. Esp] (Ciencia ficción. Fantástico. Acción)

Maestro Revolver

Administrador
Registro
9 Ago 2012
Mensajes
3.157
Reacciones (ptje)
55.041


Man-of-steel-3D.jpg




FichaTecnica.jpg


TÍTULO ORIGINAL: Man of Steel (Superman)
AÑO: 2013
DURACIÓN: 118 min.
PAÍS: USA
DIRECTOR: Zack Snyder
GUIÓN:David S. Goyer (Historia: David S. Goyer, Christopher Nolan)
REPARTO: Henry Cavill, Amy Adams, Russell Crowe, Michael Shannon, Kevin Costner, Laurence Fishburne, Diane Lane, Ayelet Zurer, Christopher Meloni, Richard Schiff, Antje Traue, Jadin Gould, Tahmoh Penikett, Michael Kelly, Dylan Sprayberry, Harry Lennix
PRODUCTORA: Coproducción USA-Canadá-Reino Unido; Warner Bros. Pictures / Legendary Pictures / Atlas Entertainment
GÉNERO: Ciencia ficción. Fantástico. Acción. Drama | Superhéroes. Cómic. DC Comics. 3-D
imdb-logo.png
: http://www.imdb.com/title/tt0770828/




Sinopsis.jpg


Desde Krypton, un lejano planeta muy avanzado tecnológicamente, un bebé es enviado en una cápsula a través del espacio a la Tierra para que viva entre los humanos. Educado en una granja en Kansas en los valores de sus padres adoptivos, Martha (Diane Lane) y Jonathan Kent (Kevin Costner), el joven Clark Kent (Henry Cavill) comienza desde niño a desarrollar poderes sobrehumanos, y al llegar a la edad adulta llega a la conclusión de que esos poderes le exigen grandes responsabilidades, para proteger no sólo a los que quiere, sino también para representar una esperanza para el mundo.




Trailer.jpg






Capturas.jpg


1.jpg


2.jpg


3.jpg


4.jpg


5.jpg


6.jpg


La pelicula NO tiene ninguna marca... solo colocamos el nombre de esta web en las capturas




MediaInfo.jpg


Código:
General
Format                                   : Matroska
Format version                           : Version 3 / Version 2
File size                                : 16.6 GiB
Duration                                 : 2h 23mn
Overall bit rate                         : 16.6 Mbps
Movie name                               : www.club-hd.com
Encoded date                             : UTC 2013-11-09 20:21:31
Writing application                      : mkvmerge v5.7.0 ('The Whirlwind') built on Jul  8 2012 20:08:51
Writing library                          : libebml v1.2.3 + libmatroska v1.3.0

Video
ID                                       : 1
Format                                   : AVC
Format/Info                              : Advanced Video Codec
Format profile                           : [email protected]
MultiView_Count                          : 2
MultiView_Layout                         : Side by Side (left eye first)
Format settings, CABAC                   : Yes
Format settings, ReFrames                : 4 frames
Codec ID                                 : V_MPEG4/ISO/AVC
Duration                                 : 2h 23mn
Bit rate                                 : 13.5 Mbps
Width                                    : 1 920 pixels
Height                                   : 1 080 pixels
Display aspect ratio                     : 16:9
Frame rate mode                          : Constant
Frame rate                               : 23.976 fps
Color space                              : YUV
Chroma subsampling                       : 4:2:0
Bit depth                                : 8 bits
Scan type                                : Progressive
Bits/(Pixel*Frame)                       : 0.271
Stream size                              : 13.5 GiB (81%)
Title                                    : www.club-hd.com
Language                                 : English
Default                                  : Yes
Forced                                   : No

Audio #1
ID                                       : 2
Format                                   : AC-3
Format/Info                              : Audio Coding 3
Mode extension                           : CM (complete main)
Format settings, Endianness              : Big
Codec ID                                 : A_AC3
Duration                                 : 2h 23mn
Bit rate mode                            : Constant
Bit rate                                 : 640 Kbps
Channel(s)                               : 6 channels
Channel positions                        : Front: L C R, Side: L R, LFE
Sampling rate                            : 48.0 KHz
Bit depth                                : 16 bits
Compression mode                         : Lossy
Stream size                              : 655 MiB (4%)
Title                                    : www.club-hd.com  >>  Latino AC3 5.1
Language                                 : Spanish
Default                                  : Yes
Forced                                   : No

Audio #2
ID                                       : 3
Format                                   : AC-3
Format/Info                              : Audio Coding 3
Mode extension                           : CM (complete main)
Format settings, Endianness              : Big
Codec ID                                 : A_AC3
Duration                                 : 2h 23mn
Bit rate mode                            : Constant
Bit rate                                 : 640 Kbps
Channel(s)                               : 6 channels
Channel positions                        : Front: L C R, Side: L R, LFE
Sampling rate                            : 48.0 KHz
Bit depth                                : 16 bits
Compression mode                         : Lossy
Stream size                              : 655 MiB (4%)
Title                                    : www.club-hd.com  >>  Inglés AC3 5.1
Language                                 : English
Default                                  : No
Forced                                   : No

Audio #3
ID                                       : 4
Format                                   : DTS
Format/Info                              : Digital Theater Systems
Mode                                     : 16
Format settings, Endianness              : Big
Codec ID                                 : A_DTS
Duration                                 : 2h 23mn
Bit rate mode                            : Constant
Bit rate                                 : 1 509 Kbps
Channel(s)                               : 6 channels
Channel positions                        : Front: L C R, Side: L R, LFE
Sampling rate                            : 48.0 KHz
Bit depth                                : 24 bits
Compression mode                         : Lossy
Stream size                              : 1.51 GiB (9%)
Title                                    : www.club-hd.com  >>  Inglés DTS 5.1
Language                                 : English
Default                                  : No
Forced                                   : No

Text #1
ID                                       : 5
Format                                   : VobSub
Muxing mode                              : zlib
Codec ID                                 : S_VOBSUB
Codec ID/Info                            : The same subtitle format used on DVDs
Title                                    : Forzados
Language                                 : Spanish
Default                                  : Yes
Forced                                   : No

Text #2
ID                                       : 6
Format                                   : VobSub
Muxing mode                              : zlib
Codec ID                                 : S_VOBSUB
Codec ID/Info                            : The same subtitle format used on DVDs
Title                                    : Completos
Language                                 : Spanish
Default                                  : No
Forced                                   : No

Menu
00:00:00.000                             : en:00:00:00.000
00:11:16.968                             : en:00:11:16.968
00:20:01.450                             : en:00:20:01.450
00:30:09.474                             : en:00:30:09.474
00:39:21.609                             : en:00:39:21.609
00:48:57.643                             : en:00:48:57.643
00:59:03.415                             : en:00:59:03.415
01:08:57.884                             : en:01:08:57.884
01:17:35.109                             : en:01:17:35.109
01:28:36.186                             : en:01:28:36.186
01:40:47.792                             : en:01:40:47.792
01:50:55.858                             : en:01:50:55.858
02:00:53.580                             : en:02:00:53.580
02:10:13.556                             : en:02:10:13.556
02:12:49.920                             : en:02:12:49.920




Descarga.jpg



MEGA-BANNER.png

Tenemos TODO el material de Club-HD disponible por Mega, enlaces 100% activos y online hasta la fecha

Llévate tus cuentas Mega PRO III gratis con tu membresía VIP!
Todos los posts vivos con links de Mega.
Todo el material de Club-HD desbloqueado y sin publicidad.

Obtén más información sobre nuestras Membresías VIP



UPLOADED_BANNER.png

Para ver este contenido oculto, debes dar click en el botón"Like", o cualquiera de las otras reacciones:

Me Gusta Me Gusta, Me Encanta Me Encanta, Jaja Jaja, Wow Wow, Triste Triste, Molesto Molesto
 
Última edición por un moderador:
Volver