Man of Tai Chi (2013) 1080p WEB-DL Audio Inglés/Chino [Subt. Esp] (Acción. Artes marciales)

Maestro Revolver

Miembro del Staff
Administrador
Registro
9 Ago 2012
Mensajes
3.161








TÍTULO ORIGINAL: Man of Tai Chi
AÑO: 2013
DURACIÓN: 105 min.
PAÍS: USA
DIRECTOR: Keanu Reeves
GUIÓN: Michael G. Cooney
REPARTO: Keanu Reeves, Jeremy Marinas, Karen Mok, Iko Uwais, Brahim Achabbakhe, Tiger Hu Chen
PRODUCTORA: Coproducción EEUU-China; China Film Group / Dalian Wanda Group / Village Roadshow Pictures
GÉNERO: Acción | Artes marciales
: http://www.imdb.com/title/tt2016940/






Gira en torno a “un joven artista de las artes marciales cuyas habilidades de combate le abren las puertas a un reino de vastas oportunidades pero dolorosas elecciones”.
























La pelicula NO tiene ninguna marca... solo colocamos el nombre de esta web en las capturas






Código:
General
Format                                   : Matroska
Format version                           : Version 2
File size                                : 3.39 GiB
Duration                                 : 1h 45mn
Overall bit rate                         : 4 605 Kbps
Movie name                               : www.club-hd.com
Encoded date                             : UTC 2013-09-28 23:35:36
Writing application                      : mkvmerge v5.7.0 ('The Whirlwind') built on Jul  8 2012 20:08:51
Writing library                          : libebml v1.2.3 + libmatroska v1.3.0

Video
ID                                       : 1
Format                                   : AVC
Format/Info                              : Advanced Video Codec
Format profile                           : High@L4.0
Format settings, CABAC                   : Yes
Format settings, ReFrames                : 5 frames
Codec ID                                 : V_MPEG4/ISO/AVC
Duration                                 : 1h 45mn
Bit rate                                 : 4 129 Kbps
Width                                    : 1 912 pixels
Height                                   : 794 pixels
Display aspect ratio                     : 2.40:1
Frame rate mode                          : Constant
Frame rate                               : 23.976 fps
Color space                              : YUV
Chroma subsampling                       : 4:2:0
Bit depth                                : 8 bits
Scan type                                : Progressive
Bits/(Pixel*Frame)                       : 0.113
Stream size                              : 3.04 GiB (90%)
Title                                    : www.club-hd.com
Language                                 : English
Default                                  : Yes
Forced                                   : No
Color primaries                          : BT.709
Transfer characteristics                 : BT.709
Matrix coefficients                      : BT.709

Audio
ID                                       : 2
Format                                   : AC-3
Format/Info                              : Audio Coding 3
Mode extension                           : CM (complete main)
Format settings, Endianness              : Big
Codec ID                                 : A_AC3
Duration                                 : 1h 45mn
Bit rate mode                            : Constant
Bit rate                                 : 384 Kbps
Channel(s)                               : 6 channels
Channel positions                        : Front: L C R, Side: L R, LFE
Sampling rate                            : 48.0 KHz
Bit depth                                : 16 bits
Compression mode                         : Lossy
Stream size                              : 289 MiB (8%)
Title                                    : www.club-hd.com
Language                                 : English
Default                                  : Yes
Forced                                   : No

Text
ID                                       : 3
Format                                   : UTF-8
Codec ID                                 : S_TEXT/UTF8
Codec ID/Info                            : UTF-8 Plain Text
Title                                    : www.club-hd.com
Language                                 : Spanish
Default                                  : Yes
Forced                                   : No

Menu
00:00:00.000                             : en:Chapter 01
00:09:17.000                             : en:Chapter 02
00:19:17.000                             : en:Chapter 03
00:29:05.000                             : en:Chapter 04
00:37:18.000                             : en:Chapter 05
00:44:35.000                             : en:Chapter 06
00:54:28.000                             : en:Chapter 07
01:01:58.000                             : en:Chapter 08
01:11:26.000                             : en:Chapter 09
01:19:44.000                             : en:Chapter 10
01:26:56.000                             : en:Chapter 11
01:37:53.000                             : en:Chapter 12




NOTA: Como se ve en la captura 1, esta película viene con subtítulos en Inglés pegados en el video, por eso recomiendo cambiarle el color a los subtítulos Español para distinguir de los que ya vienen con el video. Recomiendo el reproductor VLC media player (yo uso este reproductor) para cambiar de color los subtítulos Español que viene dentro del mkv.








Enlaces de Mega y Google Drive solo disponibles para Miembros VIP

Compra tu Membresía VIP y apoya a Club-HD!

ATENCIÓN! Tenemos TODO el material de Club-HD disponible por Mega y Google Drive, enlaces 100% activos y online hasta la fecha

Llévate tus cuentas Mega PRO III gratis con tu membresía VIP!
Todos los posts vivos con links de Mega y Google Drive.
Todo el material de Club-HD desbloqueado y sin publicidad.

Click Aquí para más información.


Para ver este contenido oculto, debes dar click en una de las siguientes reacciones : Like Like, Love Love, Haha Haha, Wow Wow, Sad Sad, Angry Angry



 
Última edición por un moderador:

Usuarios Que Están Viendo Este Tema (Total: 1, Miembros: 0, Invitados: 1)

Quién Leyó Este Tema (Total Miembros: 1)

Arriba