Maniac (2012) m-720p BDRip Audio Inglés [Subt. Esp] (Terror)

Maestro Revolver

Well-known member
Miembro del Staff
Administrador
Registro
9 Ago 2012
Mensajes
3.567

Aporte Recuperado gracias a nuestro amigo YagamiLamperouge







TÍTULO ORIGINAL: Maniac
AÑO: 2012
DURACIÓN: 90 min.
PAÍS: Francia
DIRECTOR: Franck Khalfoun
GUIÓN: Alexandre Aja, Grégory Levasseur
REPARTO: Elijah Wood, Nora Arnezeder, America Olivo, Morgane Slemp, Liane Balaban
PRODUCTORA: Coproducción Francia-EEUU; Aja / Levasseur Productions / Blue Underground / P2 Productions
GÉNERO: Terror | Thriller psicológico. Asesinos en serie. Slasher. Remake
: http://www.imdb.com/title/tt2103217/






Frank lleva una vida solitaria como propietario de una tienda de maniquíes. A primera vista, parece incapaz de matar una mosca. Sin embargo, hay algo profundamente turbador en su mirada; un secreto oscuro y perverso que resurgirá tras su encuentro con Anna, una joven artista que acude a él en busca de ayuda para una exposición. Alexandre Aja y su compañero de fechorías Gregory Levasseur han sido los encargados de escribir y apadrinar este remake del clásico de culto de William Lustig, uno de los slashers más violentos de los ochenta.
























La pelicula NO tiene ninguna marca... solo colocamos el nombre de esta web en las capturas






Código:
General
Format                                   : Matroska
Format version                           : Version 2
File size                                : 2.15 GiB
Duration                                 : 1h 28mn
Overall bit rate                         : 3 471 Kbps
Movie name                               : www.club-hd.com
Encoded date                             : UTC 2013-05-10 22:13:27
Writing application                      : mkvmerge v5.7.0 ('The Whirlwind') built on Jul  8 2012 20:08:51
Writing library                          : libebml v1.2.3 + libmatroska v1.3.0

Video
ID                                       : 1
Format                                   : AVC
Format/Info                              : Advanced Video Codec
Format profile                           : High@L4.1
Format settings, CABAC                   : Yes
Format settings, ReFrames                : 6 frames
Codec ID                                 : V_MPEG4/ISO/AVC
Duration                                 : 1h 28mn
Bit rate                                 : 2 954 Kbps
Width                                    : 1 280 pixels
Height                                   : 536 pixels
Display aspect ratio                     : 2.40:1
Frame rate mode                          : Constant
Frame rate                               : 24.000 fps
Color space                              : YUV
Chroma subsampling                       : 4:2:0
Bit depth                                : 8 bits
Scan type                                : Progressive
Bits/(Pixel*Frame)                       : 0.179
Stream size                              : 1.83 GiB (85%)
Title                                    : www.club-hd.com
Writing library                          : x264 core 130 r2273 b3065e6
Language                                 : English
Default                                  : Yes
Forced                                   : No

Audio
ID                                       : 2
Format                                   : AC-3
Format/Info                              : Audio Coding 3
Mode extension                           : CM (complete main)
Format settings, Endianness              : Big
Codec ID                                 : A_AC3
Duration                                 : 1h 28mn
Bit rate mode                            : Constant
Bit rate                                 : 448 Kbps
Channel(s)                               : 6 channels
Channel positions                        : Front: L C R, Side: L R, LFE
Sampling rate                            : 48.0 KHz
Bit depth                                : 16 bits
Compression mode                         : Lossy
Stream size                              : 285 MiB (13%)
Title                                    : www.club-hd.com
Language                                 : English
Default                                  : Yes
Forced                                   : No

Text
ID                                       : 3
Format                                   : UTF-8
Codec ID                                 : S_TEXT/UTF8
Codec ID/Info                            : UTF-8 Plain Text
Language                                 : Spanish
Default                                  : Yes
Forced                                   : No







Todos los links son Intercambiables!




Enlaces de Mega y Google Drive solo disponibles para Miembros VIP

Compra tu Membresía VIP y apoya a Club-HD!

ATENCIÓN! Tenemos TODO el material de Club-HD disponible por Mega y Google Drive, enlaces 100% activos y online hasta la fecha

Llévate tus cuentas Mega PRO III gratis con tu membresía VIP!
Todos los posts vivos con links de Mega y Google Drive.
Todo el material de Club-HD desbloqueado y sin publicidad.

Click Aquí para más información.



Para ver este contenido oculto, debes dar click en una de las siguientes reacciones : Like Like, Love Love, Haha Haha, Wow Wow, Sad Sad, Angry Angry
 
Última edición por un moderador:

Lug

Well-known member
Registro
24 Oct 2012
Mensajes
1.691
Edad
63
El primero otra vez................................
Gracias....
Desc_g_
 

Usuarios Que Están Viendo Este Tema (Total: 1, Miembros: 0, Invitados: 1)

Quién Leyó Este Tema (Total Miembros: 2)

Arriba