Max Payne (2008) UNRATED m-1080p Dual Latino-Inglés [Subt. Esp] (Thriller. Acción)

Maestro Revolver

Well-known member
Miembro del Staff
Administrador
Registro
9 Ago 2012
Mensajes
3.567








TÍTULO ORIGINAL: Max Payne
AÑO: 2008
DURACIÓN: 100 min.
PAÍS: USA
DIRECTOR: John Moore
GUIÓN: Thomas H. Fenton, Shawn Ryan, Beau Thorne (Personajes: Sam Lake)
REPARTO: Mark Wahlberg, Mila Kunis, Beau Bridges, Ludacris, Chris O'Donnell, Donal Logue, Amaury Nolasco, Nelly Furtado, Olga Kurylenko
PRODUCTORA: 20th Century Fox / Abandon Entertainment / Dune Entertainment
GÉNERO: Thriller. Acción. Fantástico | Crimen. Videojuego. Drogas
: http://www.imdb.com/title/tt0467197/






Max Payne (Wahlberg), un ex-policía de Nueva York, busca a los asesinos de su esposa y su bebé, que perdieron la vida bajo los efectos de una fuerte droga sintética. Adaptación de un popular videojuego que mezcla el thriller con el cine negro.
























La pelicula NO tiene ninguna marca... solo colocamos el nombre de esta web en las capturas






Código:
General
Format                                   : Matroska
Format version                           : Version 2
File size                                : 4.01 GiB
Duration                                 : 1h 42mn
Overall bit rate                         : 5 570 Kbps
Movie name                               : www.club-hd.com
Encoded date                             : UTC 2013-04-24 22:09:34
Writing application                      : mkvmerge v5.7.0 ('The Whirlwind') built on Jul  8 2012 20:08:51
Writing library                          : libebml v1.2.3 + libmatroska v1.3.0

Video
ID                                       : 1
Format                                   : AVC
Format/Info                              : Advanced Video Codec
Format profile                           : Main@L4.0
Format settings, CABAC                   : Yes
Format settings, ReFrames                : 4 frames
Codec ID                                 : V_MPEG4/ISO/AVC
Duration                                 : 1h 42mn
Bit rate                                 : 4 500 Kbps
Width                                    : 1 920 pixels
Height                                   : 1 080 pixels
Display aspect ratio                     : 16:9
Frame rate mode                          : Constant
Frame rate                               : 23.976 fps
Color space                              : YUV
Chroma subsampling                       : 4:2:0
Bit depth                                : 8 bits
Scan type                                : Progressive
Bits/(Pixel*Frame)                       : 0.091
Stream size                              : 3.14 GiB (78%)
Title                                    : www.club-hd.com
Writing library                          : x264 core 112
Language                                 : English
Default                                  : Yes
Forced                                   : No
Color primaries                          : BT.709
Transfer characteristics                 : BT.709
Matrix coefficients                      : BT.709

Audio #1
ID                                       : 2
Format                                   : AC-3
Format/Info                              : Audio Coding 3
Mode extension                           : CM (complete main)
Format settings, Endianness              : Big
Codec ID                                 : A_AC3
Duration                                 : 1h 42mn
Bit rate mode                            : Constant
Bit rate                                 : 448 Kbps
Channel(s)                               : 6 channels
Channel positions                        : Front: L C R, Side: L R, LFE
Sampling rate                            : 48.0 KHz
Bit depth                                : 16 bits
Compression mode                         : Lossy
Stream size                              : 330 MiB (8%)
Title                                    : www.club-hd.com  >>  Latino
Language                                 : Spanish
Default                                  : Yes
Forced                                   : No

Audio #2
ID                                       : 3
Format                                   : AC-3
Format/Info                              : Audio Coding 3
Mode extension                           : CM (complete main)
Format settings, Endianness              : Big
Codec ID                                 : A_AC3
Duration                                 : 1h 42mn
Bit rate mode                            : Constant
Bit rate                                 : 640 Kbps
Channel(s)                               : 6 channels
Channel positions                        : Front: L C R, Side: L R, LFE
Sampling rate                            : 48.0 KHz
Bit depth                                : 16 bits
Compression mode                         : Lossy
Stream size                              : 471 MiB (11%)
Title                                    : www.club-hd.com  >>  Inglés
Language                                 : English
Default                                  : No
Forced                                   : No

Text
ID                                       : 4
Format                                   : UTF-8
Codec ID                                 : S_TEXT/UTF8
Codec ID/Info                            : UTF-8 Plain Text
Language                                 : Spanish
Default                                  : No
Forced                                   : No

Menu
00:00:00.000                             : en:Chapter 1
00:01:55.782                             : en:Chapter 2
00:04:15.755                             : en:Chapter 3
00:08:23.544                             : en:Chapter 4
00:13:49.286                             : en:Chapter 5
00:17:04.732                             : en:Chapter 6
00:21:18.443                             : en:Chapter 7
00:23:20.732                             : en:Chapter 8
00:26:25.500                             : en:Chapter 9
00:30:33.289                             : en:Chapter 10
00:32:48.424                             : en:Chapter 11
00:34:54.717                             : en:Chapter 12
00:37:36.170                             : en:Chapter 13
00:44:08.854                             : en:Chapter 14
00:50:37.659                             : en:Chapter 15
00:55:12.809                             : en:Chapter 16
01:01:42.031                             : en:Chapter 17
01:04:22.149                             : en:Chapter 18
01:07:55.654                             : en:Chapter 19
01:15:17.137                             : en:Chapter 20
01:18:05.847                             : en:Chapter 21
01:21:21.501                             : en:Chapter 22
01:23:03.812                             : en:Chapter 23
01:26:23.511                             : en:Chapter 24
01:29:02.170                             : en:Chapter 25
01:33:31.105                             : en:Chapter 26
01:35:18.337                             : en:Chapter 27
01:41:18.697                             : en:Chapter 28




Nota: Al ser una versión UNRATED el audio latino no esta completo, hay escenas donde hablan en inglés, activar los subtítulos para esas escenas.








Enlaces de Mega y Google Drive solo disponibles para Miembros VIP

Compra tu Membresía VIP y apoya a Club-HD!

ATENCIÓN! Tenemos TODO el material de Club-HD disponible por Mega y Google Drive, enlaces 100% activos y online hasta la fecha

Llévate tus cuentas Mega PRO III gratis con tu membresía VIP!
Todos los posts vivos con links de Mega y Google Drive.
Todo el material de Club-HD desbloqueado y sin publicidad.

Click Aquí para más información.



Para ver este contenido oculto, debes dar click en una de las siguientes reacciones : Like Like, Love Love, Haha Haha, Wow Wow, Sad Sad, Angry Angry

 
Última edición por un moderador:

Master_jfl

New member
Registro
27 Ago 2012
Mensajes
275
Edad
34
excelente soy un fanático del vídeo juego gracias, y mientra no pase de 4.6gb me da igual si es 1080p o 720p
 

Mate78

Ladron de mi cerebro
Miembro del Staff
Súper Moderador
Miembro VIP
Registro
27 Ago 2012
Mensajes
1.244
Buenisimooooo , gracias Bestia21 !!!!:aplausos:
 

Usuarios Que Están Viendo Este Tema (Total: 1, Miembros: 0, Invitados: 1)

Quién Leyó Este Tema (Total Miembros: 2)

Arriba