Maximum Conviction (2012) m-720p Audio Inglés [Subt. Esp] (Acción)

Maestro Revolver

Well-known member
Miembro del Staff
Administrador
Registro
9 Ago 2012
Mensajes
3.569
Reacciones
59.353
Puntos
113

Reputation:









TÍTULO ORIGINAL: Maximum Conviction
AÑO: 2012
DURACIÓN: 97 min.
PAÍS: USA
DIRECTOR: Keoni Waxman
GUIÓN: Richard Beattie
REPARTO: Steven Seagal, Steve Austin, Aliyah O'Brien, Bren Foster, Gouchy Boy, Kimani Ray Smith, Lauro Chartrand, Michael Paré Michael Paré
PRODUCTORA: Steamroller Productions / Voltage Pictures
GÉNERO: Acción. Thriller
http://www.imdb.com/title/tt2119474/






Cuando el ex agente de operaciones encubiertas Tom Steele (Seagal) y su compañero Manning (Austin) se asignan a desmantelar una antigua prisión, deben supervisar la llegada de dos mujeres presas misteriosas. En poco tiempo, una fuerza de élite de mercenarios asalta la cárcel en busca de los recién llegados. Mientras la verdadera identidad de las mujeres se revelan, Steele se da cuenta de que está atrapado en el medio de algo mucho más grande de lo que había imaginado.
























La pelicula NO tiene ninguna marca... solo colocamos el nombre de esta web en las capturas






Código:
General
Format                           : Matroska
Format version                   : Version 2
File size                        : 2.50 GiB
Duration                         : 1h 37mn
Overall bit rate                 : 3 662 Kbps
Movie name                       : www.club-hd.com
Encoded date                     : UTC 2012-10-23 23:15:54
Writing application              : mkvmerge v5.7.0 ('The Whirlwind') built on Jul  8 2012 20:08:51
Writing library                  : libebml v1.2.3 + libmatroska v1.3.0

Video
ID                               : 1
Format                           : AVC
Format/Info                      : Advanced Video Codec
Format profile                   : High@L4.1
Format settings, CABAC           : Yes
Format settings, ReFrames        : 5 frames
Codec ID                         : V_MPEG4/ISO/AVC
Duration                         : 1h 37mn
Bit rate                         : 3 020 Kbps
Width                            : 1 280 pixels
Height                           : 720 pixels
Display aspect ratio             : 16:9
Frame rate                       : 23.976 fps
Color space                      : YUV
Chroma subsampling               : 4:2:0
Bit depth                        : 8 bits
Scan type                        : Progressive
Bits/(Pixel*Frame)               : 0.137
Stream size                      : 2.01 GiB (81%)
Title                            : www.club-hd.com
Writing library                  : x264 core 128 r2216 198a7ea
Language                         : English
Default                          : Yes
Forced                           : No

Audio
ID                               : 2
Format                           : AC-3
Format/Info                      : Audio Coding 3
Mode extension                   : CM (complete main)
Codec ID                         : A_AC3
Duration                         : 1h 37mn
Bit rate mode                    : Constant
Bit rate                         : 640 Kbps
Channel(s)                       : 6 channels
Channel positions                : Front: L C R, Side: L R, LFE
Sampling rate                    : 48.0 KHz
Bit depth                        : 16 bits
Compression mode                 : Lossy
Stream size                      : 447 MiB (17%)
Title                            : www.club-hd.com
Language                         : English
Default                          : Yes
Forced                           : No

Text
ID                               : 3
Format                           : UTF-8
Codec ID                         : S_TEXT/UTF8
Codec ID/Info                    : UTF-8 Plain Text
Language                         : Spanish
Default                          : Yes
Forced                           : No

Menu
00:00:00.000                     : en:Chapter 1
00:06:37.983                     : en:Chapter 2
00:15:25.552                     : en:Chapter 3
00:23:29.744                     : en:Chapter 4
00:31:52.287                     : en:Chapter 5
00:40:21.296                     : en:Chapter 6
00:49:52.658                     : en:Chapter 7
00:59:12.301                     : en:Chapter 8
01:07:47.774                     : en:Chapter 9
01:15:53.009                     : en:Chapter 10
01:22:17.768                     : en:Chapter 11
01:30:01.857                     : en:Chapter 12
01:37:41.107                     : en:Chapter 13










Enlaces de Mega y Fireload solo disponibles para Miembros VIP

Compra tu Membresía VIP y apoya a Club-HD!

ATENCIÓN! Tenemos TODO el material de Club-HD disponible por Mega y Fireload, enlaces 100% activos y online hasta la fecha

Llévate tus cuentas Mega PRO II gratis con tu membresía VIP!
Todos los posts vivos con links de Mega y Fireload.
Todo el material de Club-HD desbloqueado y sin publicidad.

Click Aquí para más información.




Enlaces de Mega y Fireload solo disponibles para Miembros VIP

Compra tu Membresía VIP y apoya a Club-HD!

ATENCIÓN! Tenemos TODO el material de Club-HD disponible por Mega y Fireload, enlaces 100% activos y online hasta la fecha

Llévate tus cuentas Mega PRO II gratis con tu membresía VIP!
Todos los posts vivos con links de Mega y Fireload.
Todo el material de Club-HD desbloqueado y sin publicidad.

Click Aquí para más información.


Para ver este contenido oculto, debes dar click en una de las siguientes reacciones : Like Like, Love Love, Haha Haha, Wow Wow, Sad Sad, Angry Angry

 
Última edición:

jave1992

New member
Registro
29 Ago 2012
Mensajes
278
Reacciones
3
Puntos
0
Edad
29
Ubicación
Lima

Reputation:

que buena pela.....revolver sabes q dia saldra la pelicula de the amazing spiderman ??
 

Nosferatu

Well-known member
Súper Moderador
Registro
31 Ago 2012
Mensajes
2.275
Reacciones
1.362
Puntos
113
Edad
44
Ubicación
Welcome to Hell!!

Reputation:

Mas estrenos, veremos como esta ya el maestro Steven Seagal, a ver que tal.:aplausos:

GRACIAS MISTER R21! :dplgar:
 

Usuarios Que Están Viendo Este Tema (Total: 1, Miembros: 0, Invitados: 1)

Arriba