Meet the Parents (2000) 720p BDRip Dual Latino-Inglés [Subt. Esp] (Comedia)

Maestro Revolver

Administrador
Registro
9 Ago 2012
Mensajes
3.157
Reacciones (ptje)
54.926


Meet-the-Parents.jpg




FichaTecnica.jpg


TÍTULO ORIGINAL: Meet the Parents
AÑO: 2000
DURACIÓN: 108 min.
PAÍS: USA
DIRECTOR: Jay Roach
GUIÓN: Jim Herzfeld, John Hamburg (Historia: Greg Glienna, Mary Ruth Clarke)
REPARTO: Robert De Niro, Ben Stiller, Blythe Danner, Teri Polo, James Rebhorn, Jon Abrahams, Owen Wilson, Nicole Dehuff
PRODUCTORA: Universal Pictures / Dreamworks Pictures
GÉNERO: Comedia | Familia
imdb-logo.png
: http://www.imdb.com/title/tt0212338/

Premios: 2000: Nominada al Oscar: Mejor canción original
2000: Nominada al Globo de Oro: Mejor actor comedia o musical (Robert De Niro)




Sinopsis.jpg


Greg Focker (Ben Stiller) es un enfermero algo patoso que, tras anunciar su compromiso con novia Pam (Teri Polo), tiene que pasar unos días con los padres de ella, para conocerles. Su encuentro inicial no será muy afortunado, en especial por las suspicacias que Greg levanta en el estricto padre de la novia (Robert de Niro), un padre protector que ha trabajado para la CIA, aunque ahora está ya retirado, y al que es muy difícil impresionar. Desde el principio, Jim rechaza por completo a Greg, pero a medida que lo conoce mejor, su rechazo se convierte en absoluto desprecio, y se encarga de convertirse en la peor pesadilla de este hombre que, a pesar de amar a su novia y querer dar una buena primera impresión, cada vez se hunde más en el lodo de su propia ineptitud, y deberá luchar mucho para poder cambiar la pésima opinión que tienen de él los parientes de su novia.




Trailer.jpg






Capturas.jpg


1.jpg


2.jpg


3.jpg


4.jpg


5.jpg


6.jpg


La pelicula NO tiene ninguna marca... solo colocamos el nombre de esta web en las capturas




MediaInfo.jpg


Código:
General
Format                                   : Matroska
Format version                           : Version 2
File size                                : 2.74 GiB
Duration                                 : 1h 47mn
Overall bit rate                         : 3 642 Kbps
Movie name                               : www.club-hd.com
Encoded date                             : UTC 2014-01-02 01:21:44
Writing application                      : mkvmerge v5.7.0 ('The Whirlwind') built on Jul  8 2012 20:08:51
Writing library                          : libebml v1.2.3 + libmatroska v1.3.0

Video
ID                                       : 1
Format                                   : AVC
Format/Info                              : Advanced Video Codec
Format profile                           : [email protected]
Format settings, CABAC                   : Yes
Format settings, ReFrames                : 9 frames
Muxing mode                              : Header stripping
Codec ID                                 : V_MPEG4/ISO/AVC
Duration                                 : 1h 47mn
Bit rate                                 : 2 746 Kbps
Width                                    : 1 280 pixels
Height                                   : 720 pixels
Display aspect ratio                     : 16:9
Frame rate mode                          : Constant
Frame rate                               : 23.976 fps
Color space                              : YUV
Chroma subsampling                       : 4:2:0
Bit depth                                : 8 bits
Scan type                                : Progressive
Bits/(Pixel*Frame)                       : 0.124
Stream size                              : 2.01 GiB (73%)
Title                                    : www.club-hd.com
Writing library                          : x264 core 140 r2377 1ca7bb9
Language                                 : English
Default                                  : Yes
Forced                                   : No

Audio #1
ID                                       : 2
Format                                   : AC-3
Format/Info                              : Audio Coding 3
Mode extension                           : CM (complete main)
Format settings, Endianness              : Big
Muxing mode                              : Header stripping
Codec ID                                 : A_AC3
Duration                                 : 1h 47mn
Bit rate mode                            : Constant
Bit rate                                 : 448 Kbps
Channel(s)                               : 6 channels
Channel positions                        : Front: L C R, Side: L R, LFE
Sampling rate                            : 48.0 KHz
Bit depth                                : 16 bits
Compression mode                         : Lossy
Delay relative to video                  : 8ms
Stream size                              : 345 MiB (12%)
Title                                    : www.club-hd.com  >>  Latino
Language                                 : Spanish
Default                                  : Yes
Forced                                   : No

Audio #2
ID                                       : 3
Format                                   : AC-3
Format/Info                              : Audio Coding 3
Mode extension                           : CM (complete main)
Format settings, Endianness              : Big
Muxing mode                              : Header stripping
Codec ID                                 : A_AC3
Duration                                 : 1h 47mn
Bit rate mode                            : Constant
Bit rate                                 : 448 Kbps
Channel(s)                               : 6 channels
Channel positions                        : Front: L C R, Side: L R, LFE
Sampling rate                            : 48.0 KHz
Bit depth                                : 16 bits
Compression mode                         : Lossy
Stream size                              : 345 MiB (12%)
Title                                    : www.club-hd.com  >>  Inglés
Language                                 : English
Default                                  : No
Forced                                   : No

Text
ID                                       : 4
Format                                   : UTF-8
Codec ID                                 : S_TEXT/UTF8
Codec ID/Info                            : UTF-8 Plain Text
Language                                 : Spanish
Default                                  : No
Forced                                   : No

Menu
00:00:00.000                             : en:A Fool in Love (Main Titles)
00:04:25.182                             : en:Proposal Problem
00:08:05.527                             : en:Daddy and Mommy
00:17:42.478                             : en:The Drug Store Trip
00:23:59.063                             : en:Dinner With the Folks
00:31:52.369                             : en:Sleeping Arrangements
00:37:09.269                             : en:To Tell the Truth
00:40:50.114                             : en:Dad's Little Secret
00:44:15.444                             : en:The Grand Inquisition
00:49:46.901                             : en:Greg's Drug Problem
00:52:01.869                             : en:Kevin
00:59:06.585                             : en:Greg's Afraid of the Ball
01:03:06.324                             : en:Wedding Smells
01:06:37.410                             : en:Jinxed
01:11:54.352                             : en:The Counterfeit Cat
01:28:32.641                             : en:Good Enough for Pam
01:33:34.609                             : en:Bomb's the Word
01:35:57.627                             : en:No More Lies
01:38:49.632                             : en:A Little Circle of Trust
01:43:51.016                             : en:End Credits




Descarga.jpg



MEGA.jpg

Tenemos TODO el material de Club-HD disponible por Mega, enlaces 100% activos y online hasta la fecha

Llévate tus cuentas Mega PRO III gratis con tu membresía VIP!
Todos los posts vivos con links de Mega.
Todo el material de Club-HD desbloqueado y sin publicidad.

Obtén más información sobre nuestras Membresías VIP



1FICHIER-BANNER.png

Tenemos TODO el material de Club-HD disponible por Mega, enlaces 100% activos y online hasta la fecha

Llévate tus cuentas Mega PRO III gratis con tu membresía VIP!
Todos los posts vivos con links de Mega.
Todo el material de Club-HD desbloqueado y sin publicidad.

Obtén más información sobre nuestras Membresías VIP



UPLOADED_BANNER.png

Para ver este contenido oculto, debes dar click en el botón"Like", o cualquiera de las otras reacciones:

Me Gusta Me Gusta, Me Encanta Me Encanta, Jaja Jaja, Wow Wow, Triste Triste, Molesto Molesto
 
Última edición por un moderador:
salio hace poco en la tv y vi solo una parte esta genial gracias por el aporte
 
Volver