Memoirs of a Geisha (2005) 1080p BDRip Dual Latino-Inglés [Subt. Esp] (Romance. Drama)

Maestro Revolver

Administrador
Registro
9 Ago 2012
Mensajes
3.157
Reacciones (ptje)
54.886


Memoirs-of-a-Geisha-1080p.jpg




FichaTecnica.jpg


TÍTULO ORIGINAL: Memoirs of a Geisha
AÑO: 2005
DURACIÓN: 145 min.
PAÍS: USA
DIRECTOR: Rob Marshall
GUIÓN: Robin Swicord (Novela: Arthur Golden)
REPARTO: Zhang Ziyi, Ken Watanabe, Gong Li, Michelle Yeoh, Suzuka Ohgo, Cary-Hiroyuki Tagawa, Youki Kudoh
PRODUCTORA: Columbia Pictures / DreamWorks / Spyglass Entertainment / Amblin Entertainment
GÉNERO: Romance. Drama | Drama romántico
imdb-logo.png
: http://www.imdb.com/title/tt0397535/

PREMIOS: 2005: 3 Oscars: Mejor fotografía, vestuario, dirección artística. 6 nominaciones
2005: Globos de Oro: Mejor banda sonora original. 2 nominaciones
2005: 3 Premios BAFTA: Mejor música, fotografía y vestuario. 6 nominaciones
2005: National Board of Review: Mejor actriz de reparto (Gong Li)
2005: Círculo de Críticos de Nueva York: Nominada a Mejor Actriz
2005: Critics' Choice Awards: Mejor compositor (Williams). 3 nominaciones




Sinopsis.jpg


Japón, 1929. Chiyo, una niña de nueve años, es vendida por sus padres para trabajar en la casa de Geishas de Nitta Okiya. Su hermana mayor Satsu no es aceptada y es enviada a un prostíbulo. En la casa Chiyo conoce a Pumpkin, otra niña que va a ser instruida para ser geisha, así como a las famosas geishas Hatsumomo (Gong Li) y su rival Mameha (Michelle Yeoh). Los comienzos de Chiyo (Zhang Ziyi) son duros, pero un encuentro con el que será el amor de su vida, el Presidente (Ken Watanabe), hará que desde ese momento sólo desee convertirse en una famosa geisha para estar más cerca de él. Adaptación del famoso best-seller de Arthur Golden.




Trailer.jpg






Capturas.jpg


1.jpg


2.jpg


3.jpg


4.jpg


5.jpg


6.jpg


La pelicula NO tiene ninguna marca... solo colocamos el nombre de esta web en las capturas




MediaInfo.jpg


Código:
General
Format                                   : Matroska
Format version                           : Version 2
File size                                : 14.2 GiB
Duration                                 : 2h 25mn
Overall bit rate                         : 14.0 Mbps
Movie name                               : www.club-hd.com
Encoded date                             : UTC 2013-03-26 23:17:32
Writing application                      : mkvmerge v5.7.0 ('The Whirlwind') built on Jul  8 2012 20:08:51
Writing library                          : libebml v1.2.3 + libmatroska v1.3.0

Video
ID                                       : 1
Format                                   : AVC
Format/Info                              : Advanced Video Codec
Format profile                           : [email protected]
Format settings, CABAC                   : Yes
Format settings, ReFrames                : 11 frames
Codec ID                                 : V_MPEG4/ISO/AVC
Duration                                 : 2h 25mn
Bit rate                                 : 11.4 Mbps
Width                                    : 1 920 pixels
Height                                   : 800 pixels
Display aspect ratio                     : 2.40:1
Frame rate mode                          : Constant
Frame rate                               : 23.976 fps
Color space                              : YUV
Chroma subsampling                       : 4:2:0
Bit depth                                : 8 bits
Scan type                                : Progressive
Bits/(Pixel*Frame)                       : 0.310
Stream size                              : 11.3 GiB (79%)
Title                                    : www.club-hd.com
Writing library                          : x264 core 57 svn-709C
Language                                 : English
Default                                  : Yes
Forced                                   : No

Audio #1
ID                                       : 2
Format                                   : AC-3
Format/Info                              : Audio Coding 3
Mode extension                           : CM (complete main)
Format settings, Endianness              : Big
Codec ID                                 : A_AC3
Duration                                 : 2h 25mn
Bit rate mode                            : Constant
Bit rate                                 : 448 Kbps
Channel(s)                               : 6 channels
Channel positions                        : Front: L C R, Side: L R, LFE
Sampling rate                            : 48.0 KHz
Bit depth                                : 16 bits
Compression mode                         : Lossy
Stream size                              : 465 MiB (3%)
Title                                    : www.club-hd.com  >>  Latino AC3 5.1
Language                                 : Spanish
Default                                  : Yes
Forced                                   : No

Audio #2
ID                                       : 3
Format                                   : AC-3
Format/Info                              : Audio Coding 3
Mode extension                           : CM (complete main)
Format settings, Endianness              : Big
Codec ID                                 : A_AC3
Duration                                 : 2h 25mn
Bit rate mode                            : Constant
Bit rate                                 : 640 Kbps
Channel(s)                               : 6 channels
Channel positions                        : Front: L C R, Side: L R, LFE
Sampling rate                            : 48.0 KHz
Bit depth                                : 16 bits
Compression mode                         : Lossy
Stream size                              : 664 MiB (5%)
Title                                    : www.club-hd.com  >>  Inglés AC3 5.1
Language                                 : English
Default                                  : No
Forced                                   : No

Audio #3
ID                                       : 4
Format                                   : DTS
Format/Info                              : Digital Theater Systems
Mode                                     : 16
Format settings, Endianness              : Big
Codec ID                                 : A_DTS
Duration                                 : 2h 25mn
Bit rate mode                            : Constant
Bit rate                                 : 1 510 Kbps
Channel(s)                               : 6 channels
Channel positions                        : Front: L C R, Side: L R, LFE
Sampling rate                            : 48.0 KHz
Bit depth                                : 24 bits
Compression mode                         : Lossy
Stream size                              : 1.53 GiB (11%)
Title                                    : www.club-hd.com  >>  Inglés DTS 5.1
Language                                 : English
Default                                  : No
Forced                                   : No

Text
ID                                       : 5
Format                                   : UTF-8
Codec ID                                 : S_TEXT/UTF8
Codec ID/Info                            : UTF-8 Plain Text
Language                                 : Spanish
Default                                  : No
Forced                                   : No




Descarga.jpg




google-drive-vip.png


Tenemos TODO el material de Club-HD disponible por Mega, enlaces 100% activos y online hasta la fecha

Llévate tus cuentas Mega PRO III gratis con tu membresía VIP!
Todos los posts vivos con links de Mega.
Todo el material de Club-HD desbloqueado y sin publicidad.

Obtén más información sobre nuestras Membresías VIP





MEGA.jpg

Tenemos TODO el material de Club-HD disponible por Mega, enlaces 100% activos y online hasta la fecha

Llévate tus cuentas Mega PRO III gratis con tu membresía VIP!
Todos los posts vivos con links de Mega.
Todo el material de Club-HD desbloqueado y sin publicidad.

Obtén más información sobre nuestras Membresías VIP



UPLOADED_BANNER.png

Para ver este contenido oculto, debes dar click en el botón"Like", o cualquiera de las otras reacciones:

Me Gusta Me Gusta, Me Encanta Me Encanta, Jaja Jaja, Wow Wow, Triste Triste, Molesto Molesto

 
Última edición:
Gracias por este aporte Maestro! Buena Película!... Saludos y Exitos!!! Tb_up3
 
Antes que nada quiero expresar mi profunda felicidad porque hayamos vuelto a tener de regreso este inestimable hogar… Revo y Max… mis mejores amigos virtuales!

Ahora si!...Para comenzar: detrás de las cámaras de esta impecable producción estuvo Rob Marshall, un consagrado coreógrafo, consumado adaptador televisivo y del mundo del teatro y como si no tuvieran relación dichas actividades también director cinematográfico… esto para comprender la estilización y el gran lirismo imperante en este film.

En otro post comentaba los caprichos y algunas excentricidades de Steven Spielberg al rodar cualquier película y aunque en ésta no se desempeñara como director, sus intereses no eran cuanto menos atractivo teniendo en cuenta que ejercía como productor y la suerte que corriera el film afectaría directamente sus finanzas (el índice de la Bolsa de Nueva York) –pobrecito el director- (30 millones de dólares se sacó del bolsillo para efectuar el montaje -85 millones costó la producción total-) pero lo que estaba en juego era la veracidad de la historia, su traslación a la gran pantalla (un libro sobre un ícono de la cultura popular oriental escrito por un estadounidense y llevado al cine por un estadounidense no se ve todos los días) el detallismo obsesivo y el cuidadoso empaque visual que como todos conocemos Spielberg cuida al máximo.

El director, Spielberg, la productora ejecutiva Patricia Whitcher y los miembros más importantes del equipo se trasladaron a la milenaria ciudad de Kioto para empaparse y conocer de primera fuente todos los secretos y misterios que envolvieron –o envuelven- estos fascinantes personajes y así mismo tomar atenta nota de los exóticos escenarios que secundan la ciudad para reproducirlos con la máxima fidelidad posible en la pantalla grande.

Visitaron museos y santuarios -como el sintoísta Heian Jingu cuya exuberante e idílica vegetación y su bucólico reflejo sobre las tranquilas aguas del recinto inspiraron a Beebe a realizar una de las fotografías más preciosistas de los últimos tiempos-, una fábrica de kimonos, asistieron a un combate de sumo, pasearon en rickshaws (carritos orientales), recorrieron la costa del Mar de Japón, presenciaron los bailes del festival de primavera y observaron cómo se maquillaba y vestía una maiko (aprendiz de geisha).

El resultado por cuanto la magnitud de la empresa lo requería no podía ser mejor: un compendio de fotogramas -cual revista virtual de turismo nipón- de insuperable belleza, una acertada y espléndida escenografía, su ya comentada y elogiada cinematografía, una dirección de actores correcta, una musicalización que brota por todos lados finura, delicadeza, exquisitez –en resumen una de las bandas sonoras más bellas jamás compuesta por el maestro Williams- y que se quedó para deshonra del compositor y vergüenza y desfachatez de la Academia sin premio Oscar (uno de los fallos más vergonzosos de la historia) y un vestuario que elevaría a Colleen Atwood al ápice del oficio.

Pero todo ello acabaría por ser un mero y hermoso videoclip de dos horas si no fuera porque hay un guion que -pese a ser un compendio de lugares comunes y de arquetipos de probada eficacia entre el gran público- atrapa al espectador, y sobre todo un elenco de actrices que convierten este film en una master-class de interpretación. Todas ellas (aunque también ellos) están impresionantes y con su sola presencia convierten este film en un festín para los sentidos. Poco importa que sean en realidad unas mujeres chinas, haciendo de japonesas, y hablando en inglés, lo que importa es que ellas y sólo ellas consiguen crear unos personajes humanos con entidad propia, y hacen creíble lo increíble, gracias al desbordante carisma que desprenden.

Asombrosa… Me encanta!

Y a ti Master un 10! Por este bello regalo.
 
Wow!! :dplgar: Espléndida película!!! :aplausos::aplausos: Muchísimas gracias por postear teniendo todavía que solucionar el problema de los respaldos Tb_up3 Saludos genio.... Como siempre la mejor calidad de audio y video!!! bye
PD: Muy buena la info que posteó juan_fornaris. De excelencia!! :dplgar:
 
Excelente película, la espero en 720.
Muchas gracias....
 
Volver