Metallica - Orgullo, pasión y gloria (2009) 720p [AC3 5.1] [DTS] (Concierto)

Maestro Revolver

Well-known member
Miembro del Staff
Administrador
Registro
9 Ago 2012
Mensajes
3.569
Reacciones
59.350
Puntos
113

Reputation:








Interprete: James Hetfield – Voz principal y Guitarra | Lead Vocals, Guitar. Lars Ulrich – Batería | Drums. Kirk Hammett – Guitarra principal | Lead Guitar. Robert Trujillo – Bajo | Bass Guitar
Artista: Metallica
Titulo: Orgullo, pasión y gloria: tres noches en la ciudad de México / Pride, Passion, and Glory: Three
Año: 2009
Genero: Metal




Orgullo, pasión y gloria: tres noches en la ciudad de México. Fue grabado en los tres conciertos que la banda dio los días 4,6 y 7 del pasado junio de 2009 en el Foro Sol durante el World Magnetic Tour.
Aquellos tres conciertos fueron los primeros que Metallica ofreció en México desde hacía diez años y, además, la banda no los canceló a pesar de la ola de pánico surgida en torno a la Gripe A (virus H1N1) ya que los primeros casos se detectaron en este país.
El fotógrafo Ross Halfing fue el responsable de este trabajo. Halfing ya había trabajado antes con Metallica y también con importantes artistas como Led Zeppelin, The Who, AC/DC entre otros. “Metallica: Orgullo, Pasión y Gloria; Tres Noches en la Ciudad de México” en su versión Blu-Ray incluye 18 canciones en vivo (directo).



Track Listing:

01.Creeping Death
02.For Whom The Bell Tolls
03.Ride The Lightning
04.Disposable Heroes
05.One
06.Broken, Beat & Scarred
07.The Memory Remains
08.Sad But True
09.The Unforgiven
10.All Nightmare Long
11.The Day That Never Comes
12.Master Of Puppets
13.Fight Fire With Fire
14.Nothing Else Matters
15.Enter Sandman
16.The Wait
17.Hit The Lights
18.Seek & Destroy


































La pelicula NO tiene ninguna marca... solo coloque mi nombre de usuario en las capturas





Código:
Format                                   : Matroska
Format version                           : Version 2
File size                                : 8.60 GiB
Duration                                 : 2h 25mn
Overall bit rate                         : 8 479 Kbps
Movie name                               : www.club-hd.com
Encoded date                             : UTC 2012-05-25 14:21:48
Writing application                      : mkvmerge v5.2.1 ('A Far Off Place') built on Jan  2 2012 23:21:10
Writing library                          : libebml v1.2.3 + libmatroska v1.3.0

Video
ID                                       : 1
Format                                   : AVC
Format/Info                              : Advanced Video Codec
Format profile                           : High@L4.1
Format settings, CABAC                   : Yes
Format settings, ReFrames                : 9 frames
Muxing mode                              : Header stripping
Codec ID                                 : V_MPEG4/ISO/AVC
Duration                                 : 2h 25mn
Bit rate                                 : 6 330 Kbps
Width                                    : 1 280 pixels
Height                                   : 720 pixels
Display aspect ratio                     : 16:9
Frame rate                               : 29.970 fps
Color space                              : YUV
Chroma subsampling                       : 4:2:0
Bit depth                                : 8 bits
Scan type                                : Progressive
Bits/(Pixel*Frame)                       : 0.229
Stream size                              : 6.25 GiB (73%)
Title                                    : www.club-hd.com
Writing library                          : x264 core 66 r1112M f43e22a
Language                                 : English
Default                                  : Yes
Forced                                   : No

Audio #1
ID                                       : 2
Format                                   : AC-3
Format/Info                              : Audio Coding 3
Mode extension                           : CM (complete main)
Format settings, Endianness              : Big
Muxing mode                              : Header stripping
Codec ID                                 : A_AC3
Duration                                 : 2h 25mn
Bit rate mode                            : Constant
Bit rate                                 : 640 Kbps
Channel(s)                               : 6 channels
Channel positions                        : Front: L C R, Side: L R, LFE
Sampling rate                            : 48.0 KHz
Bit depth                                : 16 bits
Compression mode                         : Lossy
Stream size                              : 665 MiB (8%)
Title                                    : www.club-hd.com  >>  AC3 5.1, 640 kbps
Language                                 : English
Default                                  : Yes
Forced                                   : No

Audio #2
ID                                       : 3
Format                                   : DTS
Format/Info                              : Digital Theater Systems
Muxing mode                              : Header stripping
Codec ID                                 : A_DTS
Duration                                 : 2h 25mn
Bit rate mode                            : Constant
Bit rate                                 : 1 510 Kbps
Channel(s)                               : 6 channels
Channel positions                        : Front: L C R, Side: L R, LFE
Sampling rate                            : 48.0 KHz
Bit depth                                : 24 bits
Compression mode                         : Lossy
Stream size                              : 1.53 GiB (18%)
Title                                    : www.club-hd.com  >> DTS 5.1, 1509kbps
Language                                 : English
Default                                  : No
Forced                                   : No

Text
ID                                       : 4
Format                                   : UTF-8
Codec ID                                 : S_TEXT/UTF8
Codec ID/Info                            : UTF-8 Plain Text
Language                                 : English
Default                                  : No
Forced                                   : No





Subtitulos español (.srt) By_[URL="http://www.club-hd.com/member.php?761-LEDOPU"]LEDOPU[/URL]










Enlaces de Mega y Fireload solo disponibles para Miembros VIP

Compra tu Membresía VIP y apoya a Club-HD!

ATENCIÓN! Tenemos TODO el material de Club-HD disponible por Mega y Fireload, enlaces 100% activos y online hasta la fecha

Llévate tus cuentas Mega PRO II gratis con tu membresía VIP!
Todos los posts vivos con links de Mega y Fireload.
Todo el material de Club-HD desbloqueado y sin publicidad.

Click Aquí para más información.



Enlaces de Mega y Fireload solo disponibles para Miembros VIP

Compra tu Membresía VIP y apoya a Club-HD!

ATENCIÓN! Tenemos TODO el material de Club-HD disponible por Mega y Fireload, enlaces 100% activos y online hasta la fecha

Llévate tus cuentas Mega PRO II gratis con tu membresía VIP!
Todos los posts vivos con links de Mega y Fireload.
Todo el material de Club-HD desbloqueado y sin publicidad.

Click Aquí para más información.


Para ver este contenido oculto, debes dar click en una de las siguientes reacciones : Like Like, Love Love, Haha Haha, Wow Wow, Sad Sad, Angry Angry

 
Última edición:

Dany

New member
Registro
28 Ago 2012
Mensajes
395
Reacciones
10
Puntos
0
Edad
43

Reputation:

Buenísimo... hace falta mas recitales...!!!
 

wdbm86

New member
Registro
27 Ago 2012
Mensajes
264
Reacciones
0
Puntos
0
Edad
35

Reputation:

Hey r21, no tendrás el DVD2 que salió con este? Sería mas genial aún:aplausos:
 

Toro_Rosso

Active member
Registro
29 Ago 2012
Mensajes
711
Reacciones
70
Puntos
28
Ubicación
Tristan da Cunha

Reputation:

:dplgar: Se detiene la descarga de todas las películas para dar prioridad a esta joyita. Muchas gracias Revolver21 :LXR:
 

kinkiyi

Descansa en paz querido amigo..., Siempre te reco
Colaborador
Registro
29 Ago 2012
Mensajes
587
Reacciones
40
Puntos
0
Edad
66
Ubicación
Panamá, provincia de Colón

Reputation:

Gracias carnales y pls traigannos mas conciertos...por ejemplo del grupo yes o pink floyd o emerson lake and palmer seria bestial papa
 

Usuarios Que Están Viendo Este Tema (Total: 1, Miembros: 0, Invitados: 1)

Arriba