Metallica - Quebec Magnetic (2012) 720p BDRip [AC3 5.1] [DTS] (Concierto)

Maestro Revolver

Administrador
Registro
9 Ago 2012
Mensajes
3.157
Reacciones (ptje)
54.885

Metallica-Quebec-Magnetic.jpg





Sinopsis.jpg


Quebec magnetic es un concierto en vivo de Metallica, es la grabacion de dos shows que la banda tocó en el Colisée Pepsi en Quebec, Canadá el 31 de octubre y 1 de noviembre de 2009 en su World Magnetic Tour, lanzado el 11 de diciembre de 2012. El álbum es el primero en ser lanzado a través de la etiqueta propia de Metallica: Grabaciones Blackened.



Track List:

01. That Was Just Your Life
02. The End Of The Line
03. The Four Horsemen
04. The Shortest Straw
05. One
06. Broken, Beat & Scarred
07. My Apocalypse
08. Sad But True
09. Welcome Home (Sanitarium)
10. The Judas Kiss
11. The Day That Never Comes
12. Master Of Puppets
13. Battery
14. Nothing Else Matters
15. Enter Sandman
16. Killing Time
17. Whiplash
18. Seek & Destroy




Trailer.jpg






Capturas.jpg


1.jpg


2.jpg


3.jpg


4.jpg


5.jpg


6.jpg


7.jpg


8.jpg


9.jpg





MediaInfo.jpg


Código:
General
Format                                   : Matroska
Format version                           : Version 2
File size                                : 9.13 GiB
Duration                                 : 2h 15mn
Overall bit rate                         : 9 681 Kbps
Movie name                               : www.club-hd.com
Encoded date                             : UTC 2013-02-09 15:03:14
Writing application                      : mkvmerge v5.7.0 ('The Whirlwind') built on Jul  8 2012 20:08:51
Writing library                          : libebml v1.2.3 + libmatroska v1.3.0

Video
ID                                       : 1
Format                                   : AVC
Format/Info                              : Advanced Video Codec
Format profile                           : [email protected]
Format settings, CABAC                   : Yes
Format settings, ReFrames                : 9 frames
Codec ID                                 : V_MPEG4/ISO/AVC
Duration                                 : 2h 15mn
Bit rate                                 : 7 339 Kbps
Width                                    : 1 280 pixels
Height                                   : 720 pixels
Display aspect ratio                     : 16:9
Frame rate mode                          : Constant
Frame rate                               : 29.970 fps
Color space                              : YUV
Chroma subsampling                       : 4:2:0
Bit depth                                : 8 bits
Scan type                                : Progressive
Bits/(Pixel*Frame)                       : 0.266
Stream size                              : 6.92 GiB (76%)
Title                                    : www.club-hd.com
Writing library                          : x264 core 129 r2230kMod 1cffe9f
Language                                 : English
Default                                  : Yes
Forced                                   : No

Audio #1
ID                                       : 2
Format                                   : AC-3
Format/Info                              : Audio Coding 3
Mode extension                           : CM (complete main)
Format settings, Endianness              : Big
Codec ID                                 : A_AC3
Duration                                 : 2h 15mn
Bit rate mode                            : Constant
Bit rate                                 : 640 Kbps
Channel(s)                               : 6 channels
Channel positions                        : Front: L C R, Side: L R, LFE
Sampling rate                            : 48.0 KHz
Bit depth                                : 16 bits
Compression mode                         : Lossy
Stream size                              : 618 MiB (7%)
Title                                    : www.club-hd.com  >>  AC3  640 Kbps
Language                                 : English
Default                                  : Yes
Forced                                   : No

Audio #2
ID                                       : 3
Format                                   : DTS
Format/Info                              : Digital Theater Systems
Mode                                     : 16
Format settings, Endianness              : Big
Codec ID                                 : A_DTS
Duration                                 : 2h 15mn
Bit rate mode                            : Constant
Bit rate                                 : 1 509 Kbps
Channel(s)                               : 6 channels
Channel positions                        : Front: L C R, Side: L R, LFE
Sampling rate                            : 48.0 KHz
Bit depth                                : 24 bits
Compression mode                         : Lossy
Stream size                              : 1.42 GiB (16%)
Title                                    : www.club-hd.com  >>  DTS  1 509 Kbps
Language                                 : English
Default                                  : No
Forced                                   : No

Menu
00:00:00.000                             : en:00:00:00.000
00:01:36.096                             : en:00:01:36.096
00:08:44.958                             : en:00:08:44.958
00:16:31.257                             : en:00:16:31.257
00:21:58.784                             : en:00:21:58.784
00:28:08.287                             : en:00:28:08.287
00:36:01.893                             : en:00:36:01.893
00:44:29.167                             : en:00:44:29.167
00:51:12.703                             : en:00:51:12.703
00:57:13.397                             : en:00:57:13.397
01:03:23.500                             : en:01:03:23.500
01:13:12.188                             : en:01:13:12.188
01:21:10.733                             : en:01:21:10.733
01:29:17.319                             : en:01:29:17.319
01:36:23.611                             : en:01:36:23.611
01:42:08.756                             : en:01:42:08.756
01:50:59.119                             : en:01:50:59.119
01:53:53.927                             : en:01:53:53.927
02:00:58.818                             : en:02:00:58.818
02:08:09.782                             : en:02:08:09.782




Descarga.jpg




google-drive-vip.png


Tenemos TODO el material de Club-HD disponible por Mega, enlaces 100% activos y online hasta la fecha

Llévate tus cuentas Mega PRO III gratis con tu membresía VIP!
Todos los posts vivos con links de Mega.
Todo el material de Club-HD desbloqueado y sin publicidad.

Obtén más información sobre nuestras Membresías VIP




MEGA.jpg

Tenemos TODO el material de Club-HD disponible por Mega, enlaces 100% activos y online hasta la fecha

Llévate tus cuentas Mega PRO III gratis con tu membresía VIP!
Todos los posts vivos con links de Mega.
Todo el material de Club-HD desbloqueado y sin publicidad.

Obtén más información sobre nuestras Membresías VIP



UPLOADED_BANNER.png

Para ver este contenido oculto, debes dar click en el botón"Like", o cualquiera de las otras reacciones:

Me Gusta Me Gusta, Me Encanta Me Encanta, Jaja Jaja, Wow Wow, Triste Triste, Molesto Molesto

 
Última edición por un moderador:
bye Genial maestro!!!!!! Que pedazo de aporte!!! :aplausos: Te recontra pasaste!!! Pl4yb0y
 
Seeeeee!!!!!
AGUANTE EL METAAAALL ! ! !H_b4ngerH_b4nger
Chas Gracias Revolver!
 
que buenos aportes para cerrrar este fin de semana con broche de oro revolver
 
lo mejor de lo mejor Revolver, Gracias por este excelente aporte y por la excelente calidad xD
 
Volver