Metropolis (1927) 1080p BDRip Audio Sin Dialogos [Subt. Esp] (Ciencia ficción)

Maestro Revolver

Administrador
Registro
9 Ago 2012
Mensajes
3.157
Reacciones (ptje)
55.034



Metropolis-1080p.jpg




FichaTecnica.jpg


TÍTULO ORIGINAL: Metropolis
AÑO: 1927
DURACIÓN: 153 min.
PAÍS: Alemania
DIRECTOR: Fritz Lang
GUIÓN: Thea von Harbou
REPARTO: Gustav Fröhlich, Brigitte Helm, Alfred Abel, Rudolf Klein-Rogge, Fritz Rasp, Theodor Loos, Heinrich George, Fritz Alberti, Grete Berger, Heinrich Gotho, Georg John, Olaf Storm
PRODUCTORA: U.F.A.
GÉNERO: Ciencia ficción | Steampunk. Robots. Expresionismo alemán. Cine mudo. Película de culto
imdb-logo.png
: http://www.imdb.com/title/tt0017136/




Sinopsis.jpg


En una megalópolis del año 2000, los obreros están condenados a vivir recluidos en un gueto subterráneo, donde se encuentra el corazón industrial de la ciudad. Sin embargo, incitados por un robot, se rebelan contra la clase dominante y amenazan con destruir la ciudad exterior. Freder (Gustav Frölich), el hijo del soberano de Metrópolis, y María, una muchacha de origen humilde, intentarán evitar la destrucción apelando a los sentimientos y al amor.




Trailer.jpg






Capturas.jpg


1.jpg


2.jpg


3.jpg


4.jpg


5.jpg


6.jpg


La pelicula NO tiene ninguna marca... solo colocamos el nombre de esta web en las capturas




MediaInfo.jpg


Código:
General
Format                                   : Matroska
Format version                           : Version 2
File size                                : 11.6 GiB
Duration                                 : 2h 30mn
Overall bit rate                         : 11.1 Mbps
Movie name                               : www.club-hd.com
Encoded date                             : UTC 2013-05-03 16:34:28
Writing application                      : mkvmerge v5.7.0 ('The Whirlwind') built on Jul  8 2012 20:08:51
Writing library                          : libebml v1.2.3 + libmatroska v1.3.0

Video
ID                                       : 1
Format                                   : AVC
Format/Info                              : Advanced Video Codec
Format profile                           : [email protected]
Format settings, CABAC                   : Yes
Format settings, ReFrames                : 4 frames
Codec ID                                 : V_MPEG4/ISO/AVC
Duration                                 : 2h 30mn
Bit rate                                 : 8 912 Kbps
Width                                    : 1 440 pixels
Height                                   : 1 080 pixels
Display aspect ratio                     : 4:3
Frame rate mode                          : Constant
Frame rate                               : 24.000 fps
Color space                              : YUV
Chroma subsampling                       : 4:2:0
Bit depth                                : 8 bits
Scan type                                : Progressive
Bits/(Pixel*Frame)                       : 0.239
Stream size                              : 9.12 GiB (79%)
Title                                    : www.club-hd.com
Writing library                          : x264 core 107 r1772 c9dad9e
Language                                 : English
Default                                  : Yes
Forced                                   : No

Audio #1
ID                                       : 2
Format                                   : AC-3
Format/Info                              : Audio Coding 3
Mode extension                           : CM (complete main)
Format settings, Endianness              : Big
Codec ID                                 : A_AC3
Duration                                 : 2h 30mn
Bit rate mode                            : Constant
Bit rate                                 : 640 Kbps
Channel(s)                               : 6 channels
Channel positions                        : Front: L C R, Side: L R, LFE
Sampling rate                            : 48.0 KHz
Bit depth                                : 16 bits
Compression mode                         : Lossy
Stream size                              : 688 MiB (6%)
Title                                    : AC3 Audio
Language                                 : German
Default                                  : Yes
Forced                                   : No

Audio #2
ID                                       : 3
Format                                   : DTS
Format/Info                              : Digital Theater Systems
Mode                                     : 16
Format settings, Endianness              : Big
Codec ID                                 : A_DTS
Duration                                 : 2h 30mn
Bit rate mode                            : Constant
Bit rate                                 : 1 509 Kbps
Channel(s)                               : 6 channels
Channel positions                        : Front: L C R, Side: L R, LFE
Sampling rate                            : 48.0 KHz
Bit depth                                : 24 bits
Compression mode                         : Lossy
Stream size                              : 1.58 GiB (14%)
Title                                    : DTS Audio
Language                                 : German
Default                                  : No
Forced                                   : No

Text
ID                                       : 4
Format                                   : UTF-8
Codec ID                                 : S_TEXT/UTF8
Codec ID/Info                            : UTF-8 Plain Text
Language                                 : Spanish
Default                                  : Yes
Forced                                   : No




CONTRASE%C3%91A-FINAL.png



Código:
www.club-hd.com




DESCARGA-FINAL.png



Todos los links son Intercambiables!


MEGA-BANNER.png

Tenemos TODO el material de Club-HD disponible por Mega, enlaces 100% activos y online hasta la fecha

Llévate tus cuentas Mega PRO III gratis con tu membresía VIP!
Todos los posts vivos con links de Mega.
Todo el material de Club-HD desbloqueado y sin publicidad.

Obtén más información sobre nuestras Membresías VIP



UPLOADED_BANNER.png

Para ver este contenido oculto, debes dar click en el botón"Like", o cualquiera de las otras reacciones:

Me Gusta Me Gusta, Me Encanta Me Encanta, Jaja Jaja, Wow Wow, Triste Triste, Molesto Molesto
 
Última edición por un moderador:
Que manera de tirar Fantasia este Señor , gracias por este aportazo R21 gracias gracias graciasssssssTb_up3:aplausos:Pl4yb0y: Dplgar:Hurr4hcl4p_PRT: Ohhh:
 
Muchas gracias Master esta no sabia que existía.:aplausos::aplausos::aplausos:

Eres un Monstruo R21!!!:aplausos::aplausos:
 
Super clasico y una obra maestra, te pasaste esta ves R21 nunca pensé que fuera a ver esta película aquí en el club :D muchísimas gracias
 
Jamás hubiera esperado ver esta cinta acá. Como dice el dicho, el que espera tiene su recompensa.
Gracias señores!! Esperaré la 720, y si no viene, regresaré por ésta.
 
muy bueno..no sabia de la existencia de este pelicula..ojala por mas q el contribuidor dije q preferia 1080 ojala la puedan subir 720p ya q pesa demasiado..es una peli para ver =D
 
:aplausos:

Pedid y se os dara, por imposible que sea, cerca del siglo de antiguedad y tu la traes en 1080 como si nada :OHHH:

Sos el mejor, Muchas gracias por traer estas reliquias para nuestras colecciones :dplgar:
 
Volver