Miss Bala (2011) 720p BDRip Audio Latino (Drama)

Maestro Revolver

Administrador
Registro
9 Ago 2012
Mensajes
3.157
Reacciones (ptje)
55.166


Miss-bala.jpg




FichaTecnica.jpg


TÍTULO ORIGINAL: Miss Bala
AÑO: 2011
DURACIÓN: 113 min.
PAÍS: México
DIRECTOR: Gerardo Naranjo
GUIÓN: Gerardo Naranjo
REPARTO: Stephanie Sigman, Noé Hernández, Irene Azuela, James Russo, José Yenque
PRODUCTORA: Canana Films / FOX Internacional Productions / IMCINE / CONACULTA / FIDECINE
GÉNERO: Drama | Drama social. Crimen. Mafia. Drogas
imdb-logo.png
: http://www.imdb.com/title/tt1911600/

PREMIOS: 2011: Premios Ariel: 3 nominaciones: mejor película, dirección y actor (Noe Hernandez)
2011: Premios Goya: Nominada a Mejor película hispanoamericana
2011: Festival de Cannes: Sección oficial a concurso (sección "Un certain regard")
2011: Satellite Awards: Nominada a Mejor película de habla no inglesa




Sinopsis.jpg


La obsesión de Laura, una joven mexicana, por convertirse en una reina de la belleza la lleva a verse involucrada en las redes del narcotráfico y a trabajar al servicio de una banda que tiene aterrorizado el norte de México. Su participación en la violenta guerra de bandas que sacude a México cambiará por completo su vida.




Trailer.jpg






Capturas.jpg


1.jpg


2.jpg


3.jpg


4.jpg


5.jpg


6.jpg


La pelicula NO tiene ninguna marca... solo colocamos el nombre de esta web en las capturas




MediaInfo.jpg


Código:
General
Format                                   : Matroska
Format version                           : Version 2
File size                                : 4.59 GiB
Duration                                 : 1h 52mn
Overall bit rate                         : 5 812 Kbps
Movie name                               : www.club-hd.com
Encoded date                             : UTC 2013-03-07 14:38:33
Writing application                      : mkvmerge v5.7.0 ('The Whirlwind') built on Jul  8 2012 20:08:51
Writing library                          : libebml v1.2.3 + libmatroska v1.3.0

Video
ID                                       : 1
Format                                   : AVC
Format/Info                              : Advanced Video Codec
Format profile                           : [email protected]
Format settings, CABAC                   : Yes
Format settings, ReFrames                : 5 frames
Codec ID                                 : V_MPEG4/ISO/AVC
Duration                                 : 1h 52mn
Bit rate                                 : 5 500 Kbps
Width                                    : 1 280 pixels
Height                                   : 544 pixels
Display aspect ratio                     : 2.35:1
Frame rate mode                          : Constant
Frame rate                               : 23.976 fps
Color space                              : YUV
Chroma subsampling                       : 4:2:0
Bit depth                                : 8 bits
Scan type                                : Progressive
Bits/(Pixel*Frame)                       : 0.329
Stream size                              : 4.14 GiB (90%)
Title                                    : www.club-hd.com
Writing library                          : x264 core 129 r2230 1cffe9f
Language                                 : English
Default                                  : Yes
Forced                                   : No

Audio
ID                                       : 2
Format                                   : AC-3
Format/Info                              : Audio Coding 3
Mode extension                           : CM (complete main)
Format settings, Endianness              : Big
Codec ID                                 : A_AC3
Duration                                 : 1h 52mn
Bit rate mode                            : Constant
Bit rate                                 : 448 Kbps
Channel(s)                               : 6 channels
Channel positions                        : Front: L C R, Side: L R, LFE
Sampling rate                            : 48.0 KHz
Bit depth                                : 16 bits
Compression mode                         : Lossy
Stream size                              : 362 MiB (8%)
Title                                    : www.club-hd.com
Language                                 : Spanish
Default                                  : Yes
Forced                                   : No

Menu
00:00:00.000                             : en:00:00:00.000
00:05:54.771                             : en:00:05:54.771
00:10:27.043                             : en:00:10:27.043
00:16:03.379                             : en:00:16:03.379
00:22:12.164                             : en:00:22:12.164
00:28:52.356                             : en:00:28:52.356
00:33:58.662                             : en:00:33:58.662
00:40:25.256                             : en:00:40:25.256
00:46:51.767                             : en:00:46:51.767
00:52:37.112                             : en:00:52:37.112
00:58:34.344                             : en:00:58:34.344
01:05:06.319                             : en:01:05:06.319
01:10:39.652                             : en:01:10:39.652
01:17:38.946                             : en:01:17:38.946
01:23:46.980                             : en:01:23:46.980
01:29:26.194                             : en:01:29:26.194
01:35:26.346                             : en:01:35:26.346
01:40:48.668                             : en:01:40:48.668
01:42:28.684                             : en:01:42:28.684
01:50:29.039                             : en:01:50:29.039




Descarga.jpg




google-drive-vip.png


Tenemos TODO el material de Club-HD disponible por Mega, enlaces 100% activos y online hasta la fecha

Llévate tus cuentas Mega PRO III gratis con tu membresía VIP!
Todos los posts vivos con links de Mega.
Todo el material de Club-HD desbloqueado y sin publicidad.

Obtén más información sobre nuestras Membresías VIP




MEGA.jpg

Tenemos TODO el material de Club-HD disponible por Mega, enlaces 100% activos y online hasta la fecha

Llévate tus cuentas Mega PRO III gratis con tu membresía VIP!
Todos los posts vivos con links de Mega.
Todo el material de Club-HD desbloqueado y sin publicidad.

Obtén más información sobre nuestras Membresías VIP



UPLOADED_BANNER.png

Para ver este contenido oculto, debes dar click en el botón"Like", o cualquiera de las otras reacciones:

Me Gusta Me Gusta, Me Encanta Me Encanta, Jaja Jaja, Wow Wow, Triste Triste, Molesto Molesto

 
Última edición por un moderador:
Impactante... Una película que ocurre a diario en el mundo. Gracias Revolver! Veré que tal está. Saludos
 
a descargar y ver de que trata esta violencia ,, gracias revolver21 por esta peli saludos
 
Gracias por este aporte amigo Revolver, sigue asi... Se ve buena la peli... Larga vida a CLUB-HD! R0ckin2
 
EXCELENTE , gracias R21 !!!:LXR::LXR:
 
Volver