Monster House (2006) 720p BDRip Dual Latino-Inglés [Subt. Esp] (Animación)

Maestro Revolver

Administrador
Registro
9 Ago 2012
Mensajes
3.157
Reacciones (ptje)
55.041


Monster-House.jpg




FichaTecnica.jpg


TÍTULO ORIGINAL: Monster House
AÑO: 2006
DURACIÓN: 91 min.
PAÍS: USA
DIRECTOR: Gil Kenan
GUIÓN: Dan Harmon, Rob Schrab, Pamela Pettler (Historia: Dan Harmon, Rob Schrab)
REPARTO: Animation, Mitchel Musso, Sam Lerner, Spencer Locke, Steve Buscemi, Maggie Gyllenhaal, Jason Lee, Catherine O'Hara, Fred Willard, Kevin James, John Heder, Kathleen Turner
PRODUCTORA: Columbia Pictures
GÉNERO: Animación. Comedia. Fantástico. Terror | Comedia de terror. Casas encantadas. 3-D

imdb-logo.png
: http://www.imdb.com/title/tt0385880/




Sinopsis.jpg


D.J. Walters es un chico de doce años al que se le ha metido en la cabeza que en la casa del anciano Nebbercracker, al otro lado de la calle, ocurre algo extraño. La víspera de Halloween, el balón con el que juegan D.J. y su amigo va a parar al jardín del señor Nebbercracker, pero inexplicablemente llega al interior de la vivienda. Cuando su amiga Jenny está a punto de ser engullida por la misteriosa casa, nadie cree a los asustados chicos; así que los tres deciden investigar el enigma por su cuenta.




Trailer.jpg






Capturas.jpg


1.jpg


2.jpg


3.jpg


4.jpg


5.jpg


6.jpg


La pelicula NO tiene ninguna marca... solo colocamos el nombre de esta web en las capturas




MediaInfo.jpg


Código:
General
Format                                   : Matroska
Format version                           : Version 2
File size                                : 2.55 GiB
Duration                                 : 1h 30mn
Overall bit rate                         : 4 025 Kbps
Movie name                               : www.club-hd.com
Encoded date                             : UTC 2013-06-22 18:00:21
Writing application                      : mkvmerge v5.7.0 ('The Whirlwind') built on Jul  8 2012 20:08:51
Writing library                          : libebml v1.2.3 + libmatroska v1.3.0

Video
ID                                       : 1
Format                                   : AVC
Format/Info                              : Advanced Video Codec
Format profile                           : [email protected]
Format settings, CABAC                   : Yes
Format settings, ReFrames                : 8 frames
Codec ID                                 : V_MPEG4/ISO/AVC
Duration                                 : 1h 30mn
Bit rate                                 : 3 000 Kbps
Width                                    : 1 280 pixels
Height                                   : 536 pixels
Display aspect ratio                     : 2.40:1
Frame rate mode                          : Constant
Frame rate                               : 23.976 fps
Color space                              : YUV
Chroma subsampling                       : 4:2:0
Bit depth                                : 8 bits
Scan type                                : Progressive
Bits/(Pixel*Frame)                       : 0.182
Stream size                              : 1.85 GiB (73%)
Title                                    : www.club-hd.com
Writing library                          : x264 core 130 r2273 b3065e6
Language                                 : English
Default                                  : Yes
Forced                                   : No

Audio #1
ID                                       : 2
Format                                   : AC-3
Format/Info                              : Audio Coding 3
Mode extension                           : CM (complete main)
Format settings, Endianness              : Big
Codec ID                                 : A_AC3
Duration                                 : 1h 30mn
Bit rate mode                            : Constant
Bit rate                                 : 384 Kbps
Channel(s)                               : 6 channels
Channel positions                        : Front: L C R, Side: L R, LFE
Sampling rate                            : 48.0 KHz
Bit depth                                : 16 bits
Compression mode                         : Lossy
Stream size                              : 249 MiB (10%)
Title                                    : www.club-hd.com  >>  Latino
Language                                 : Spanish
Default                                  : Yes
Forced                                   : No

Audio #2
ID                                       : 3
Format                                   : AC-3
Format/Info                              : Audio Coding 3
Mode extension                           : CM (complete main)
Format settings, Endianness              : Big
Codec ID                                 : A_AC3
Duration                                 : 1h 30mn
Bit rate mode                            : Constant
Bit rate                                 : 640 Kbps
Channel(s)                               : 6 channels
Channel positions                        : Front: L C R, Side: L R, LFE
Sampling rate                            : 48.0 KHz
Bit depth                                : 16 bits
Compression mode                         : Lossy
Stream size                              : 415 MiB (16%)
Title                                    : www.club-hd.com  >>  Inglés
Language                                 : English
Default                                  : No
Forced                                   : No

Text
ID                                       : 4
Format                                   : UTF-8
Codec ID                                 : S_TEXT/UTF8
Codec ID/Info                            : UTF-8 Plain Text
Language                                 : Spanish
Default                                  : No
Forced                                   : No




Contraseña:






Descarga.jpg



MEGA.jpg

Tenemos TODO el material de Club-HD disponible por Mega, enlaces 100% activos y online hasta la fecha

Llévate tus cuentas Mega PRO III gratis con tu membresía VIP!
Todos los posts vivos con links de Mega.
Todo el material de Club-HD desbloqueado y sin publicidad.

Obtén más información sobre nuestras Membresías VIP



UPLOADED_BANNER.png

Para ver este contenido oculto, debes dar click en el botón"Like", o cualquiera de las otras reacciones:

Me Gusta Me Gusta, Me Encanta Me Encanta, Jaja Jaja, Wow Wow, Triste Triste, Molesto Molesto
 
Última edición por un moderador:
Que gran sorpresa... otra película para los sobrinos ;) Muchas gracias Revolver :dplgar: Los chicos... felices :D Saludos bye
 
nunca la e visto completa, ahora nos brindas la ooprtunidad de tenerla en casa, gracias R :dplgar:
 
Muchas Gracias por este excelente aporte.:aplausos::aplausos::aplausos:

para los pequeños de la casa, ya que mi hermano tiene varios.:D

Gracias Master!!!:aplausos::aplausos::aplausos:
 
Gracias Monstruo22!!! Esta peli es más cercana al terror serio que a la animación infantil; me acuerdo de ver niños con cara de mucho miedo cuando miraban esta película.tvhorror

Saludos.bye
 
Buena pelicula Mil gracias Revolver a descargar se a dicho. :aplausos:Tb_up3Desc_g_
 
Volver