Monsters, Inc. (2001) 3D H-SBS 1080p BDRip Dual Latino-Inglés [Subt. Esp] (Animación)

Maestro Revolver

Well-known member
Miembro del Staff
Administrador
Registro
9 Ago 2012
Mensajes
3.569
Reacciones
59.361
Puntos
113

Reputation:









TÍTULO ORIGINAL: Monsters, Inc.
AÑO: 2001
DURACIÓN: 88 min.
PAÍS: USA
DIRECTOR: Pete Docter, Lee Unkrich, David Silverman
GUIÓN: Andrew Stanton & Daniel Gerson
REPARTO: Animation
PRODUCTORA: Walt Disney Pictures / Pixar Animation Studios
GÉNERO: Animación. Comedia. Fantástico. Infantil | Monstruos
http://www.imdb.com/title/tt0198781/

PREMIOS: 2001: Oscar: Mejor canción original. 4 nominaciones
2001: BAFTA: Mejor largometraje animado






Monsters Inc. es la mayor empresa de miedo del mundo, y James P. Sullivan es uno de sus mejores empleados. Asustar a los niños no es un trabajo fácil, ya que todos creen que los niños son tóxicos y no pueden tener contacto con ellos. Pero un día una niña se cuela sin querer en la empresa, provocando el caos.
























La pelicula NO tiene ninguna marca... solo colocamos el nombre de esta web en las capturas






Código:
General
Format                                   : Matroska
Format version                           : Version 3 / Version 2
File size                                : 8.49 GiB
Duration                                 : 1h 32mn
Overall bit rate                         : 13.2 Mbps
Movie name                               : www.club-hd.com
Encoded date                             : UTC 2013-02-05 23:12:18
Writing application                      : mkvmerge v5.7.0 ('The Whirlwind') built on Jul  8 2012 20:08:51
Writing library                          : libebml v1.2.3 + libmatroska v1.3.0

Video
ID                                       : 1
Format                                   : AVC
Format/Info                              : Advanced Video Codec
Format profile                           : High@L4.1
MultiView_Count                          : 2
MultiView_Layout                         : Side by Side (left eye first)
Format settings, CABAC                   : Yes
Format settings, ReFrames                : 4 frames
Codec ID                                 : V_MPEG4/ISO/AVC
Duration                                 : 1h 32mn
Bit rate                                 : 11.9 Mbps
Width                                    : 1 920 pixels
Height                                   : 1 080 pixels
Display aspect ratio                     : 16:9
Frame rate mode                          : Constant
Frame rate                               : 23.976 fps
Color space                              : YUV
Chroma subsampling                       : 4:2:0
Bit depth                                : 8 bits
Scan type                                : Progressive
Bits/(Pixel*Frame)                       : 0.239
Stream size                              : 7.66 GiB (90%)
Title                                    : www.club-hd.com
Writing library                          : x264 core 129 r2245 bc13772
Language                                 : English
Default                                  : Yes
Forced                                   : No

Audio #1
ID                                       : 2
Format                                   : AC-3
Format/Info                              : Audio Coding 3
Mode extension                           : CM (complete main)
Format settings, Endianness              : Big
Codec ID                                 : A_AC3
Duration                                 : 1h 32mn
Bit rate mode                            : Constant
Bit rate                                 : 384 Kbps
Channel(s)                               : 6 channels
Channel positions                        : Front: L C R, Side: L R, LFE
Sampling rate                            : 48.0 KHz
Bit depth                                : 16 bits
Compression mode                         : Lossy
Delay relative to video                  : 300ms
Stream size                              : 253 MiB (3%)
Title                                    : www.club-hd.com  >>  Latino
Language                                 : Spanish
Default                                  : Yes
Forced                                   : No

Audio #2
ID                                       : 3
Format                                   : AC-3
Format/Info                              : Audio Coding 3
Mode extension                           : CM (complete main)
Format settings, Endianness              : Big
Codec ID                                 : A_AC3
Duration                                 : 1h 32mn
Bit rate mode                            : Constant
Bit rate                                 : 640 Kbps
Channel(s)                               : 6 channels
Channel positions                        : Front: L C R, Side: L R, LFE
Sampling rate                            : 48.0 KHz
Bit depth                                : 16 bits
Compression mode                         : Lossy
Stream size                              : 422 MiB (5%)
Title                                    : www.club-hd.com  >>  Inglés
Language                                 : English
Default                                  : No
Forced                                   : No

Text
ID                                       : 4
Format                                   : UTF-8
Codec ID                                 : S_TEXT/UTF8
Codec ID/Info                            : UTF-8 Plain Text
Language                                 : Spanish
Default                                  : No
Forced                                   : No

Menu
00:00:00.000                             : en:00:00:00.000
00:01:33.093                             : en:00:01:33.093
00:03:07.604                             : en:00:03:07.604
00:04:51.124                             : en:00:04:51.124
00:07:16.936                             : en:00:07:16.936
00:09:11.509                             : en:00:09:11.509
00:10:43.601                             : en:00:10:43.601
00:11:53.796                             : en:00:11:53.796
00:17:25.795                             : en:00:17:25.795
00:20:06.080                             : en:00:20:06.080
00:22:03.781                             : en:00:22:03.781
00:25:48.422                             : en:00:25:48.422
00:28:34.963                             : en:00:28:34.963
00:31:06.489                             : en:00:31:06.489
00:34:49.963                             : en:00:34:49.963
00:36:55.630                             : en:00:36:55.630
00:38:50.286                             : en:00:38:50.286
00:40:27.884                             : en:00:40:27.884
00:43:34.278                             : en:00:43:34.278
00:45:29.727                             : en:00:45:29.727
00:48:07.426                             : en:00:48:07.426
00:50:37.159                             : en:00:50:37.159
00:54:41.278                             : en:00:54:41.278
00:57:29.446                             : en:00:57:29.446
01:03:42.026                             : en:01:03:42.026
01:06:25.022                             : en:01:06:25.022
01:07:26.375                             : en:01:07:26.375
01:13:52.136                             : en:01:13:52.136
01:17:49.581                             : en:01:17:49.581
01:21:24.921                             : en:01:21:24.921
01:24:07.959                             : en:01:24:07.959
01:25:10.230                             : en:01:25:10.230










Enlaces de Mega y Fireload solo disponibles para Miembros VIP

Compra tu Membresía VIP y apoya a Club-HD!

ATENCIÓN! Tenemos TODO el material de Club-HD disponible por Mega y Fireload, enlaces 100% activos y online hasta la fecha

Llévate tus cuentas Mega PRO II gratis con tu membresía VIP!
Todos los posts vivos con links de Mega y Fireload.
Todo el material de Club-HD desbloqueado y sin publicidad.

Click Aquí para más información.




Enlaces de Mega y Fireload solo disponibles para Miembros VIP

Compra tu Membresía VIP y apoya a Club-HD!

ATENCIÓN! Tenemos TODO el material de Club-HD disponible por Mega y Fireload, enlaces 100% activos y online hasta la fecha

Llévate tus cuentas Mega PRO II gratis con tu membresía VIP!
Todos los posts vivos con links de Mega y Fireload.
Todo el material de Club-HD desbloqueado y sin publicidad.

Click Aquí para más información.



Para ver este contenido oculto, debes dar click en una de las siguientes reacciones : Like Like, Love Love, Haha Haha, Wow Wow, Sad Sad, Angry Angry

 
Última edición:

sharklui

Well-known member
Miembro VIP
Registro
28 Ago 2012
Mensajes
1.026
Reacciones
271
Puntos
83
Ubicación
The Matrix

Reputation:

Excelente Pelicula, y hace poco la vi en Disney promocionandola, sos grande y lo sabes, compartir es vivir pero tu vives compartiendo y te lo agradecemos enormemente, con mi premium de uploaded voy por esta y la sumo a la coleccion, no se como le haces para ofrecernos semejante calidad para todos los dias tenernos pegaditos a tu homepage para enterarnos que traes de nuevo o en su defecto de viejo (reliquias inolvidables) en excelente calidad.

Miles, Miles, Miles, Miles, Miles, Miles, Miles, Miles, Miles, Miles, Miles, Miles, Miles, Miles ... y miles de gracias para ti por tu continuo esfuerzo por mantener un internet libre para todos
friends
:buen post:
G4nast3
M_Bu3n0
 

Yonatan

Admin
Miembro del Staff
Administrador
Registro
27 Ago 2012
Mensajes
1.768
Reacciones
3.729
Puntos
113
Edad
28
Ubicación
Chile, Sexta Región

Reputation:

Excelente Pelicula, y hace poco la vi en Disney promocionandola, sos grande y lo sabes, compartir es vivir pero tu vives compartiendo y te lo agradecemos enormemente, con mi premium de uploaded voy por esta y la sumo a la coleccion, no se como le haces para ofrecernos semejante calidad para todos los dias tenernos pegaditos a tu homepage para enterarnos que traes de nuevo o en su defecto de viejo (reliquias inolvidables) en excelente calidad.

Miles, Miles, Miles, Miles, Miles, Miles, Miles, Miles, Miles, Miles, Miles, Miles, Miles, Miles ... y miles de gracias para ti por tu continuo esfuerzo por mantener un internet libre para todos
friends
:buen post:
G4nast3
M_Bu3n0

Estos Son Comentarios que nos dan ganas de leer y de saber que es lo que piensas los demas
saludos y gracias por tus palabras hacia Revolver se lo merece y tienes toda la razon con lo que dices
Sigue asi amigo :aplausos:
 

EvilGil

Member
Registro
27 Ago 2012
Mensajes
115
Reacciones
2
Puntos
18
Edad
44

Reputation:

muchas gracias! será la primera vez k la vea mi hijo menor, y en 3D! Eres genial Revolver!!!!
 

eljumachi

Well-known member
Miembro VIP
Registro
27 Ago 2012
Mensajes
2.174
Reacciones
339
Puntos
83

Reputation:

Son aportes de lujo Que solo CLUB HD nos brinda es por ello que todo miembro de este club no nos cansamos de agradecer la labor y el esfuerzo que solo ustedes nos dan, Muchas gracias muchachos, que siempre nosotros los apoyaremos comprando las cuentas premium mes a mes, Saludos
 

Usuarios Que Están Viendo Este Tema (Total: 1, Miembros: 0, Invitados: 1)

Arriba