Monsters University (2013) 1080p BDRip Dual Latino-Inglés [Subt. Esp] (Animación)

Maestro Revolver

Well-known member
Miembro del Staff
Administrador
Registro
9 Ago 2012
Mensajes
3.567







TÍTULO ORIGINAL: Monsters University
AÑO: 2013
DURACIÓN: 102 min.
PAÍS: USA
DIRECTOR: Dan Scanlon
GUIÓN: Robert L. Baird, Daniel Gerson, Dan Scanlon (Personajes: Andrew Stanton, Pete Docter)
REPARTO: Animation
PRODUCTORA: Pixar Animation Studios / Walt Disney Pictures
GÉNERO: Animación. Fantástico. Comedia | Monstruos. Colegios & Universidad. Precuela. 3-D
: http://www.imdb.com/title/tt1453405/






Mike Wazowski (Billy Crystal) y James P. Sullivan (John Goodman) son amigos inseparables, pero no fue siempre así. Cuando se conocieron en la Universidad, no se podían soportar, pero acabaron superando sus diferencias y se convirtieron en los mejores amigos. Precuela de la exitosa "Monstruos, S.A.".
























La pelicula NO tiene ninguna marca... solo colocamos el nombre de esta web en las capturas






Código:
General
Format                                   : Matroska
Format version                           : Version 2
File size                                : 4.84 GiB
Duration                                 : 1h 44mn
Overall bit rate                         : 6 639 Kbps
Movie name                               : www.club-hd.com
Encoded date                             : UTC 2013-10-12 22:04:11
Writing application                      : mkvmerge v5.7.0 ('The Whirlwind') built on Jul  8 2012 20:08:51
Writing library                          : libebml v1.2.3 + libmatroska v1.3.0

Video
ID                                       : 1
Format                                   : AVC
Format/Info                              : Advanced Video Codec
Format profile                           : High@L4.0
Format settings, CABAC                   : Yes
Format settings, ReFrames                : 4 frames
Codec ID                                 : V_MPEG4/ISO/AVC
Duration                                 : 1h 44mn
Bit rate                                 : 5 386 Kbps
Width                                    : 1 920 pixels
Height                                   : 1 080 pixels
Display aspect ratio                     : 16:9
Frame rate mode                          : Constant
Frame rate                               : 23.976 fps
Color space                              : YUV
Chroma subsampling                       : 4:2:0
Bit depth                                : 8 bits
Scan type                                : Progressive
Bits/(Pixel*Frame)                       : 0.108
Stream size                              : 3.81 GiB (79%)
Writing library                          : x264 core 138 r2358 9e941d1
Language                                 : English
Default                                  : Yes
Forced                                   : No

Audio #1
ID                                       : 2
Format                                   : AC-3
Format/Info                              : Audio Coding 3
Mode extension                           : CM (complete main)
Format settings, Endianness              : Big
Codec ID                                 : A_AC3
Duration                                 : 1h 44mn
Bit rate mode                            : Constant
Bit rate                                 : 640 Kbps
Channel(s)                               : 6 channels
Channel positions                        : Front: L C R, Side: L R, LFE
Sampling rate                            : 48.0 KHz
Bit depth                                : 16 bits
Compression mode                         : Lossy
Stream size                              : 477 MiB (10%)
Language                                 : Spanish
Default                                  : Yes
Forced                                   : No

Audio #2
ID                                       : 3
Format                                   : AC-3
Format/Info                              : Audio Coding 3
Mode extension                           : CM (complete main)
Format settings, Endianness              : Big
Codec ID                                 : A_AC3
Duration                                 : 1h 44mn
Bit rate mode                            : Constant
Bit rate                                 : 640 Kbps
Channel(s)                               : 6 channels
Channel positions                        : Front: L C R, Side: L R, LFE
Sampling rate                            : 48.0 KHz
Bit depth                                : 16 bits
Compression mode                         : Lossy
Stream size                              : 477 MiB (10%)
Language                                 : English
Default                                  : No
Forced                                   : No

Text
ID                                       : 4
Format                                   : UTF-8
Codec ID                                 : S_TEXT/UTF8
Codec ID/Info                            : UTF-8 Plain Text
Language                                 : Spanish
Default                                  : No
Forced                                   : No

Menu
00:00:00.000                             : en:00:00:00.000
00:06:26.720                             : en:00:06:26.720
00:07:06.885                             : en:00:07:06.885
00:10:54.112                             : en:00:10:54.112
00:12:19.947                             : en:00:12:19.947
00:16:09.969                             : en:00:16:09.969
00:18:15.636                             : en:00:18:15.636
00:19:37.593                             : en:00:19:37.593
00:21:06.849                             : en:00:21:06.849
00:23:43.630                             : en:00:23:43.630
00:29:22.719                             : en:00:29:22.719
00:30:39.462                             : en:00:30:39.462
00:33:38.099                             : en:00:33:38.099
00:36:30.980                             : en:00:36:30.980
00:38:19.422                             : en:00:38:19.422
00:39:22.568                             : en:00:39:22.568
00:45:13.335                             : en:00:45:13.335
00:47:14.831                             : en:00:47:14.831
00:51:08.148                             : en:00:51:08.148
00:55:21.192                             : en:00:55:21.192
00:57:30.321                             : en:00:57:30.321
01:01:42.239                             : en:01:01:42.239
01:04:37.289                             : en:01:04:37.289
01:07:33.006                             : en:01:07:33.006
01:14:11.321                             : en:01:14:11.321
01:18:07.849                             : en:01:18:07.849
01:19:25.718                             : en:01:19:25.718
01:23:53.402                             : en:01:23:53.402
01:24:38.656                             : en:01:24:38.656
01:28:00.232                             : en:01:28:00.232
01:32:51.356                             : en:01:32:51.356
01:34:24.032                             : en:01:34:24.032








Enlaces de Mega y Google Drive solo disponibles para Miembros VIP

Compra tu Membresía VIP y apoya a Club-HD!

ATENCIÓN! Tenemos TODO el material de Club-HD disponible por Mega y Google Drive, enlaces 100% activos y online hasta la fecha

Llévate tus cuentas Mega PRO III gratis con tu membresía VIP!
Todos los posts vivos con links de Mega y Google Drive.
Todo el material de Club-HD desbloqueado y sin publicidad.

Click Aquí para más información.



Enlaces de Mega y Google Drive solo disponibles para Miembros VIP

Compra tu Membresía VIP y apoya a Club-HD!

ATENCIÓN! Tenemos TODO el material de Club-HD disponible por Mega y Google Drive, enlaces 100% activos y online hasta la fecha

Llévate tus cuentas Mega PRO III gratis con tu membresía VIP!
Todos los posts vivos con links de Mega y Google Drive.
Todo el material de Club-HD desbloqueado y sin publicidad.

Click Aquí para más información.



Para ver este contenido oculto, debes dar click en una de las siguientes reacciones : Like Like, Love Love, Haha Haha, Wow Wow, Sad Sad, Angry Angry


Para ver este contenido oculto, debes dar click en una de las siguientes reacciones : Like Like, Love Love, Haha Haha, Wow Wow, Sad Sad, Angry Angry
 
Última edición por un moderador:

Usuarios Que Están Viendo Este Tema (Total: 1, Miembros: 0, Invitados: 1)

Quién Leyó Este Tema (Total Miembros: 4)

Arriba