Monte Carlo (2011) m-1080p BDRip Dual Latino-Inglés [Subt. Esp] (Aventura. Comedia. Romance)

Maestro Revolver

Well-known member
Miembro del Staff
Administrador
Registro
9 Ago 2012
Mensajes
3.567








TÍTULO ORIGINAL: Monte Carlo
AÑO: 2011
DURACIÓN: 109 min.
PAÍS: USA
DIRECTOR: Thomas Bezucha
GUIÓN: Thomas Bezucha, April Blair, Maria Maggenti, Kelly Bowe (Novela: Jules Bass)
REPARTO: Selena Gomez, Leighton Meester, Katie Cassidy, Andie MacDowell, Cory Monteith, Catherine Tate, Brett Cullen, Pierre Boulanger, Amanda Fairbank-Hynes, Luke Bracey, Valérie Lemercier
PRODUCTORA: Blossom Films / Fox 2000 Pictures / Mid Atlantic Films / New Regency Pictures / Regency Enterprises / Walden Media
GÉNERO: Aventuras. Comedia. Romance | Comedia juvenil. Comedia romántica
: http://www.imdb.com/title/tt1067774/






Una joven, su hermanastra y su mejor amiga dedican sus ahorros a cumplir un sueño: visitar París. Pero el viaje resulta decepcionante, y París mucho menos glamouroso de lo que esperaban. Intentando olvidar su frustración, se cuelan en un hotel de lujo, donde una de ellas será confundida con una heredera británica. Antes de que puedan revelar su verdadera identidad, se verán envueltas en una serie de divertidos enredos que las llevarán a pasar sus vacaciones en Monte Carlo.
























La pelicula NO tiene ninguna marca... solo colocamos el nombre de esta web en las capturas






Código:
General
Format                                   : Matroska
Format version                           : Version 2
File size                                : 4.28 GiB
Duration                                 : 1h 48mn
Overall bit rate                         : 5 632 Kbps
Movie name                               : www.club-hd.com
Encoded date                             : UTC 2013-07-19 02:14:05
Writing application                      : mkvmerge v5.7.0 ('The Whirlwind') built on Jul  8 2012 20:08:51
Writing library                          : libebml v1.2.3 + libmatroska v1.3.0

Video
ID                                       : 1
Format                                   : AVC
Format/Info                              : Advanced Video Codec
Format profile                           : Main@L4.0
Format settings, CABAC                   : Yes
Format settings, ReFrames                : 4 frames
Codec ID                                 : V_MPEG4/ISO/AVC
Duration                                 : 1h 48mn
Bit rate                                 : 4 600 Kbps
Width                                    : 1 920 pixels
Height                                   : 1 080 pixels
Display aspect ratio                     : 16:9
Frame rate mode                          : Constant
Frame rate                               : 23.976 fps
Color space                              : YUV
Chroma subsampling                       : 4:2:0
Bit depth                                : 8 bits
Scan type                                : Progressive
Bits/(Pixel*Frame)                       : 0.093
Stream size                              : 3.37 GiB (79%)
Title                                    : www.club-hd.com
Writing library                          : x264 core 112
Language                                 : English
Default                                  : Yes
Forced                                   : No
Color primaries                          : BT.709
Transfer characteristics                 : BT.709
Matrix coefficients                      : BT.709

Audio #1
ID                                       : 2
Format                                   : AC-3
Format/Info                              : Audio Coding 3
Mode extension                           : CM (complete main)
Format settings, Endianness              : Big
Codec ID                                 : A_AC3
Duration                                 : 1h 48mn
Bit rate mode                            : Constant
Bit rate                                 : 448 Kbps
Channel(s)                               : 6 channels
Channel positions                        : Front: L C R, Side: L R, LFE
Sampling rate                            : 48.0 KHz
Bit depth                                : 16 bits
Compression mode                         : Lossy
Stream size                              : 349 MiB (8%)
Title                                    : www.club-hd.com  >>  Latino
Language                                 : Spanish
Default                                  : Yes
Forced                                   : No

Audio #2
ID                                       : 3
Format                                   : AC-3
Format/Info                              : Audio Coding 3
Mode extension                           : CM (complete main)
Format settings, Endianness              : Big
Codec ID                                 : A_AC3
Duration                                 : 1h 48mn
Bit rate mode                            : Constant
Bit rate                                 : 640 Kbps
Channel(s)                               : 6 channels
Channel positions                        : Front: L C R, Side: L R, LFE
Sampling rate                            : 48.0 KHz
Bit depth                                : 16 bits
Compression mode                         : Lossy
Stream size                              : 498 MiB (11%)
Title                                    : www.club-hd.com  >>  Inglés
Language                                 : English
Default                                  : No
Forced                                   : No

Text
ID                                       : 4
Format                                   : UTF-8
Codec ID                                 : S_TEXT/UTF8
Codec ID/Info                            : UTF-8 Plain Text
Language                                 : Spanish
Default                                  : No
Forced                                   : No

Menu
00:00:00.000                             : en:Chapter 1
00:05:51.351                             : en:Chapter 2
00:09:11.300                             : en:Chapter 3
00:12:40.342                             : en:Chapter 4
00:14:11.559                             : en:Chapter 5
00:17:24.793                             : en:Chapter 6
00:21:34.501                             : en:Chapter 7
00:25:02.667                             : en:Chapter 8
00:30:06.262                             : en:Chapter 9
00:33:43.479                             : en:Chapter 10
00:37:23.658                             : en:Chapter 11
00:43:30.524                             : en:Chapter 12
00:49:45.023                             : en:Chapter 13
00:55:02.215                             : en:Chapter 14
00:58:04.606                             : en:Chapter 15
01:01:04.535                             : en:Chapter 16
01:04:45.047                             : en:Chapter 17
01:08:18.135                             : en:Chapter 18
01:12:17.958                             : en:Chapter 19
01:16:11.900                             : en:Chapter 20
01:21:14.369                             : en:Chapter 21
01:23:15.699                             : en:Chapter 22
01:27:35.708                             : en:Chapter 23
01:30:35.596                             : en:Chapter 24
01:34:21.113                             : en:Chapter 25
01:37:54.618                             : en:Chapter 26
01:39:59.827                             : en:Chapter 27
01:44:16.750                             : en:Chapter 28








Enlaces de Mega y Google Drive solo disponibles para Miembros VIP

Compra tu Membresía VIP y apoya a Club-HD!

ATENCIÓN! Tenemos TODO el material de Club-HD disponible por Mega y Google Drive, enlaces 100% activos y online hasta la fecha

Llévate tus cuentas Mega PRO III gratis con tu membresía VIP!
Todos los posts vivos con links de Mega y Google Drive.
Todo el material de Club-HD desbloqueado y sin publicidad.

Click Aquí para más información.


Para ver este contenido oculto, debes dar click en una de las siguientes reacciones : Like Like, Love Love, Haha Haha, Wow Wow, Sad Sad, Angry Angry

 
Última edición por un moderador:

Usuarios Que Están Viendo Este Tema (Total: 1, Miembros: 0, Invitados: 1)

Quién Leyó Este Tema (Total Miembros: 3)

Arriba