Monty Python's The Meaning of Life (1983) 720p BDRip Audio Inglés [Subt. Esp] (Comedia. Musical)

Maestro Revolver

Well-known member
Miembro del Staff
Administrador
Registro
9 Ago 2012
Mensajes
3.567








TÍTULO ORIGINAL: Monty Python's The Meaning of Life
AÑO: 1983
DURACIÓN: 103 min.
PAÍS: Reino Unido
DIRECTOR: Terry Jones, Terry Gilliam
GUIÓN: Terry Gilliam, John Cleese, Graham Chapman, Terry Gilliam, Eric Idle, Terry Jones, Michael Palin
REPARTO: John Cleese, Michael Palin, Graham Chapman, Eric Idle, Terry Jones, Terry Gilliam, Carol Cleveland, Simon Jones, Patricia Quinn, Judy Loe
PRODUCTORA: Universal Pictures
GÉNERO: Comedia. Musical | Comedia absurda. Sátira. Sketches. Película de culto
: http://www.imdb.com/title/tt0085959/






Conjunto de episodios que muestran de forma disparatada los momentos más importantes del ciclo de la vida. Desde el nacimiento a la muerte, pasando por asuntos como la filosofía, la historia o la medicina, todo tratado con el inconfundible humor de los populares cómicos ingleses. El prólogo es un cortometraje independiente rodado por Terry Gilliam: "Seguros permanentes Crimson".
























La pelicula NO tiene ninguna marca... solo colocamos el nombre de esta web en las capturas






Código:
General
Format                                   : Matroska
Format version                           : Version 2
File size                                : 4.37 GiB
Duration                                 : 1h 47mn
Overall bit rate                         : 5 845 Kbps
Movie name                               : www.club-hd.com
Encoded date                             : UTC 2013-11-24 18:09:42
Writing application                      : mkvmerge v5.7.0 ('The Whirlwind') built on Jul  8 2012 20:08:51
Writing library                          : libebml v1.2.3 + libmatroska v1.3.0

Video
ID                                       : 1
Format                                   : AVC
Format/Info                              : Advanced Video Codec
Format profile                           : High@L4.1
Format settings, CABAC                   : Yes
Format settings, ReFrames                : 5 frames
Codec ID                                 : V_MPEG4/ISO/AVC
Duration                                 : 1h 47mn
Bit rate                                 : 5 397 Kbps
Width                                    : 1 280 pixels
Height                                   : 696 pixels
Display aspect ratio                     : 1.85:1
Frame rate mode                          : Constant
Frame rate                               : 23.976 fps
Color space                              : YUV
Chroma subsampling                       : 4:2:0
Bit depth                                : 8 bits
Scan type                                : Progressive
Bits/(Pixel*Frame)                       : 0.253
Stream size                              : 3.95 GiB (90%)
Title                                    : www.club-hd.com
Writing library                          : x264 core 138 r2358kMod 9e941d1
Language                                 : English
Default                                  : Yes
Forced                                   : No

Audio
ID                                       : 2
Format                                   : AC-3
Format/Info                              : Audio Coding 3
Mode extension                           : CM (complete main)
Format settings, Endianness              : Big
Codec ID                                 : A_AC3
Duration                                 : 1h 47mn
Bit rate mode                            : Constant
Bit rate                                 : 448 Kbps
Channel(s)                               : 6 channels
Channel positions                        : Front: L C R, Side: L R, LFE
Sampling rate                            : 48.0 KHz
Bit depth                                : 16 bits
Compression mode                         : Lossy
Stream size                              : 343 MiB (8%)
Title                                    : www.club-hd.com
Language                                 : English
Default                                  : Yes
Forced                                   : No

Text
ID                                       : 3
Format                                   : UTF-8
Codec ID                                 : S_TEXT/UTF8
Codec ID/Info                            : UTF-8 Plain Text
Title                                    : www.club-hd.com
Language                                 : Spanish
Default                                  : Yes
Forced                                   : No

Menu
00:00:00.000                             : de:00:00:00.000
00:16:31.616                             : de:00:16:31.616
00:20:17.216                             : de:00:20:17.216
00:24:46.944                             : de:00:24:46.944
00:31:50.200                             : de:00:31:50.200
00:34:19.432                             : de:00:34:19.432
00:37:16.276                             : de:00:37:16.276
00:43:44.831                             : de:00:43:44.831
00:45:04.994                             : de:00:45:04.994
00:48:53.097                             : de:00:48:53.097
00:51:40.931                             : de:00:51:40.931
00:57:39.581                             : de:00:57:39.581
01:01:22.554                             : de:01:01:22.554
01:03:45.113                             : de:01:03:45.113
01:08:36.279                             : de:01:08:36.279
01:11:13.352                             : de:01:11:13.352
01:15:16.303                             : de:01:15:16.303
01:17:44.535                             : de:01:17:44.535
01:24:37.572                             : de:01:24:37.572
01:29:40.292                             : de:01:29:40.292
01:31:39.828                             : de:01:31:39.828
01:32:41.556                             : de:01:32:41.556
01:39:53.613                             : de:01:39:53.613
01:41:16.529                             : de:01:41:16.529
01:43:34.667                             : de:01:43:34.667








Enlaces de Mega y Google Drive solo disponibles para Miembros VIP

Compra tu Membresía VIP y apoya a Club-HD!

ATENCIÓN! Tenemos TODO el material de Club-HD disponible por Mega y Google Drive, enlaces 100% activos y online hasta la fecha

Llévate tus cuentas Mega PRO III gratis con tu membresía VIP!
Todos los posts vivos con links de Mega y Google Drive.
Todo el material de Club-HD desbloqueado y sin publicidad.

Click Aquí para más información.



Para ver este contenido oculto, debes dar click en una de las siguientes reacciones : Like Like, Love Love, Haha Haha, Wow Wow, Sad Sad, Angry Angry

 
Última edición por un moderador:

DoomsDay Elite

Well-known member
Registro
5 Sep 2012
Mensajes
1.222
cuando era niño reía mucho con esta película pasaban dando en un canal en mi pais , gracias master por este super recuerdo
 

Usuarios Que Están Viendo Este Tema (Total: 1, Miembros: 0, Invitados: 1)

Quién Leyó Este Tema (Total Miembros: 2)

Arriba