Mr. and Mrs. Smith (2005) 1080p BDRip Dual Latino-Inglés [Subt. Esp] (Acción. Comedia)

Maestro Revolver

Well-known member
Miembro del Staff
Administrador
Registro
9 Ago 2012
Mensajes
3.569
Reacciones
59.341
Puntos
113

Reputation:

Aporte Recuperado gracias a nuestro amigo clasaase







TÍTULO ORIGINAL: Mr. and Mrs. Smith
AÑO: 2005
DURACIÓN: 120 min.
PAÍS: USA
DIRECTOR: Doug Liman
GUIÓN: Simon Kinberg, Jez Butterworth, John Henry Butterworth
REPARTO: Brad Pitt, Angelina Jolie, Vince Vaughn, Adam Brody, Michelle Monaghan, Kerry Washington, Keith David, Chris Weitz, Jennifer Morrison, Rachael Huntley, Stephanie March
PRODUCTORA: 20th Century Fox presenta una producción New Regency
GÉNERO: Acción. Comedia. Thriller. Romance
: http://www.imdb.com/title/tt0356910/






La acomodada vida de Jane Smith (Angelina Jolie) y John Smith (Brad Pitt) no impide que el suyo sea un matrimonio gris y anodino. Además, ambos ocultan un secreto por el que su pareja estaría dispuesta a matar: los dos son agentes secretos, asesinos increíblemente eficientes que trabajan para organizaciones enfrentadas entre sí. Ambos descubren una nueva fuente de emoción en sus vidas cuando resulta que son contratados para asesinarse mutuamente.
























La pelicula NO tiene ninguna marca... solo colocamos el nombre de esta web en las capturas






Código:
General
Format                                   : Matroska
Format version                           : Version 2
File size                                : 11.5 GiB
Duration                                 : 1h 59mn
Overall bit rate                         : 13.7 Mbps
Movie name                               : www.club-hd.com
Encoded date                             : UTC 2013-01-09 23:26:29
Writing application                      : mkvmerge v5.7.0 ('The Whirlwind') built on Jul  8 2012 20:08:51
Writing library                          : libebml v1.2.3 + libmatroska v1.3.0

Video
ID                                       : 1
Format                                   : AVC
Format/Info                              : Advanced Video Codec
Format profile                           : High@L4.1
Format settings, CABAC                   : Yes
Format settings, ReFrames                : 4 frames
Codec ID                                 : V_MPEG4/ISO/AVC
Duration                                 : 1h 59mn
Bit rate                                 : 11.2 Mbps
Width                                    : 1 920 pixels
Height                                   : 816 pixels
Display aspect ratio                     : 2.35:1
Frame rate mode                          : Constant
Frame rate                               : 23.976 fps
Color space                              : YUV
Chroma subsampling                       : 4:2:0
Bit depth                                : 8 bits
Scan type                                : Progressive
Bits/(Pixel*Frame)                       : 0.299
Stream size                              : 9.19 GiB (80%)
Title                                    : www.club-hd.com
Writing library                          : x264 core 68 r1183M f21daff
Language                                 : English
Default                                  : Yes
Forced                                   : No

Audio #1
ID                                       : 2
Format                                   : AC-3
Format/Info                              : Audio Coding 3
Mode extension                           : CM (complete main)
Format settings, Endianness              : Big
Codec ID                                 : A_AC3
Duration                                 : 1h 59mn
Bit rate mode                            : Constant
Bit rate                                 : 320 Kbps
Channel(s)                               : 6 channels
Channel positions                        : Front: L C R, Side: L R, LFE
Sampling rate                            : 48.0 KHz
Bit depth                                : 16 bits
Compression mode                         : Lossy
Stream size                              : 275 MiB (2%)
Title                                    : www.club-hd.com  >>  Latino AC3 5.1
Language                                 : Spanish
Default                                  : Yes
Forced                                   : No

Audio #2
ID                                       : 3
Format                                   : AC-3
Format/Info                              : Audio Coding 3
Mode extension                           : CM (complete main)
Format settings, Endianness              : Big
Codec ID                                 : A_AC3
Duration                                 : 1h 59mn
Bit rate mode                            : Constant
Bit rate                                 : 640 Kbps
Channel(s)                               : 6 channels
Channel positions                        : Front: L C R, Side: L R, LFE
Sampling rate                            : 48.0 KHz
Bit depth                                : 16 bits
Compression mode                         : Lossy
Stream size                              : 549 MiB (5%)
Title                                    : www.club-hd.com  >>  Inglés AC3 5.1
Language                                 : English
Default                                  : No
Forced                                   : No

Audio #3
ID                                       : 4
Format                                   : DTS
Format/Info                              : Digital Theater Systems
Mode                                     : 16
Format settings, Endianness              : Big
Codec ID                                 : A_DTS
Duration                                 : 1h 59mn
Bit rate mode                            : Constant
Bit rate                                 : 1 509 Kbps
Channel(s)                               : 6 channels
Channel positions                        : Front: L C R, Side: L R, LFE
Sampling rate                            : 48.0 KHz
Bit depth                                : 24 bits
Compression mode                         : Lossy
Stream size                              : 1.26 GiB (11%)
Title                                    : www.club-hd.com  >>  Inglés DTS 5.1
Language                                 : English
Default                                  : No
Forced                                   : No

Text
ID                                       : 5
Format                                   : UTF-8
Codec ID                                 : S_TEXT/UTF8
Codec ID/Info                            : UTF-8 Plain Text
Language                                 : Spanish
Default                                  : No
Forced                                   : No







Código:
www.club-hd.com[/CENTER]







Todos los links son Intercambiables!




Enlaces de Mega y Fireload solo disponibles para Miembros VIP

Compra tu Membresía VIP y apoya a Club-HD!

ATENCIÓN! Tenemos TODO el material de Club-HD disponible por Mega y Fireload, enlaces 100% activos y online hasta la fecha

Llévate tus cuentas Mega PRO II gratis con tu membresía VIP!
Todos los posts vivos con links de Mega y Fireload.
Todo el material de Club-HD desbloqueado y sin publicidad.

Click Aquí para más información.



Para ver este contenido oculto, debes dar click en una de las siguientes reacciones : Like Like, Love Love, Haha Haha, Wow Wow, Sad Sad, Angry Angry



Para ver este contenido oculto, debes dar click en una de las siguientes reacciones : Like Like, Love Love, Haha Haha, Wow Wow, Sad Sad, Angry Angry
 
Última edición por un moderador:

ketualpe

New member
Registro
9 Sep 2012
Mensajes
23
Reacciones
0
Puntos
0

Reputation:

Muchas Gracias uno de los clasicos de accion, aunque solo para ver a la angelina

te pasaste solo aqui en club-hd.com
 

Usuarios Que Están Viendo Este Tema (Total: 1, Miembros: 0, Invitados: 1)

Arriba