Mud (2012) m-720p BDRip Dual Latino-Inglés [Subt. Esp] (Drama)

Maestro Revolver

Administrador
Registro
9 Ago 2012
Mensajes
3.157
Reacciones (ptje)
54.932


Nueva-caratula-club-hd.jpg




FichaTecnica.jpg


TÍTULO ORIGINAL: Mud
AÑO: 2012
DURACIÓN: 130 min.
PAÍS: USA
DIRECTOR: Jeff Nichols
GUIÓN: Jeff Nichols
REPARTO: Matthew McConaughey, Tye Sheridan, Jacob Lofland, Reese Witherspoon, Michael Shannon, Sarah Paulson, Ray McKinnon, Sam Shepard, Paul Sparks, Joe Don Baker, Stuart Greer, Michael Abbott Jr.
PRODUCTORA: Lionsgate Films / Everest Entertainment / FilmNation Entertainment / Brace Cove Productions
GÉNERO: Drama | Cine independiente USA. Vida rural (Norteamérica). Adolescencia
imdb-logo.png
: http://www.imdb.com/title/tt1935179/




Sinopsis.jpg


Mud, un carismático fugitivo (Matthew McConaughey), se oculta en una isla del Mississippi, donde se hace amigo de dos muchachos de catorce años, que intentarán ayudarlo a escapar de la ley y de varios cazadores de recompensas para que pueda reunirse con su amor (Reese Witherspoon).




Trailer.jpg






Capturas.jpg


1.jpg


2.jpg


3.jpg


4.jpg


5.jpg


6.jpg


La pelicula NO tiene ninguna marca... solo colocamos el nombre de esta web en las capturas




MediaInfo.jpg


Código:
General
Format                                   : Matroska
Format version                           : Version 2
File size                                : 3.28 GiB
Duration                                 : 2h 10mn
Overall bit rate                         : 3 593 Kbps
Movie name                               : www.club-hd.com
Encoded date                             : UTC 2013-07-29 22:46:13
Writing application                      : mkvmerge v5.7.0 ('The Whirlwind') built on Jul  8 2012 20:08:51
Writing library                          : libebml v1.2.3 + libmatroska v1.3.0

Video
ID                                       : 1
Format                                   : AVC
Format/Info                              : Advanced Video Codec
Format profile                           : [email protected]
Format settings, CABAC                   : Yes
Format settings, ReFrames                : 5 frames
Codec ID                                 : V_MPEG4/ISO/AVC
Duration                                 : 2h 10mn
Bit rate                                 : 2 700 Kbps
Width                                    : 1 280 pixels
Height                                   : 544 pixels
Display aspect ratio                     : 2.35:1
Frame rate mode                          : Constant
Frame rate                               : 23.976 fps
Color space                              : YUV
Chroma subsampling                       : 4:2:0
Bit depth                                : 8 bits
Scan type                                : Progressive
Bits/(Pixel*Frame)                       : 0.162
Stream size                              : 2.40 GiB (73%)
Title                                    : www.club-hd.com
Writing library                          : x264 core 128 r2216 198a7ea
Language                                 : English
Default                                  : Yes
Forced                                   : No

Audio #1
ID                                       : 2
Format                                   : AC-3
Format/Info                              : Audio Coding 3
Mode extension                           : CM (complete main)
Format settings, Endianness              : Big
Codec ID                                 : A_AC3
Duration                                 : 2h 10mn
Bit rate mode                            : Constant
Bit rate                                 : 448 Kbps
Channel(s)                               : 6 channels
Channel positions                        : Front: L C R, Side: L R, LFE
Sampling rate                            : 48.0 KHz
Bit depth                                : 16 bits
Compression mode                         : Lossy
Stream size                              : 419 MiB (12%)
Title                                    : www.club-hd.com  >>  Latino
Language                                 : Spanish
Default                                  : Yes
Forced                                   : No

Audio #2
ID                                       : 3
Format                                   : AC-3
Format/Info                              : Audio Coding 3
Mode extension                           : CM (complete main)
Format settings, Endianness              : Big
Codec ID                                 : A_AC3
Duration                                 : 2h 10mn
Bit rate mode                            : Constant
Bit rate                                 : 448 Kbps
Channel(s)                               : 6 channels
Channel positions                        : Front: L C R, Side: L R, LFE
Sampling rate                            : 48.0 KHz
Bit depth                                : 16 bits
Compression mode                         : Lossy
Stream size                              : 419 MiB (12%)
Title                                    : www.club-hd.com  >>  Inglés
Language                                 : English
Default                                  : No
Forced                                   : No

Text
ID                                       : 4
Format                                   : UTF-8
Codec ID                                 : S_TEXT/UTF8
Codec ID/Info                            : UTF-8 Plain Text
Title                                    : www.club-hd.com
Language                                 : Spanish
Default                                  : No
Forced                                   : No

Menu
00:00:00.000                             : en:00:00:00.000
00:07:59.187                             : en:00:07:59.187
00:17:06.651                             : en:00:17:06.651
00:24:48.987                             : en:00:24:48.987
00:32:16.476                             : en:00:32:16.476
00:39:46.175                             : en:00:39:46.175
00:52:01.952                             : en:00:52:01.952
00:57:58.308                             : en:00:57:58.308
01:06:18.892                             : en:01:06:18.892
01:17:45.286                             : en:01:17:45.286
01:24:48.959                             : en:01:24:48.959
01:32:28.501                             : en:01:32:28.501
01:42:04.577                             : en:01:42:04.577
01:50:34.378                             : en:01:50:34.378
01:58:59.257                             : en:01:58:59.257
02:07:01.447                             : en:02:07:01.447




Descarga.jpg



MEGA.jpg

Tenemos TODO el material de Club-HD disponible por Mega, enlaces 100% activos y online hasta la fecha

Llévate tus cuentas Mega PRO III gratis con tu membresía VIP!
Todos los posts vivos con links de Mega.
Todo el material de Club-HD desbloqueado y sin publicidad.

Obtén más información sobre nuestras Membresías VIP


UPLOADED_BANNER.png

Para ver este contenido oculto, debes dar click en el botón"Like", o cualquiera de las otras reacciones:

Me Gusta Me Gusta, Me Encanta Me Encanta, Jaja Jaja, Wow Wow, Triste Triste, Molesto Molesto



 
Última edición por un moderador:
Muchas gracias Revolver :aplausos: Justo que la estaba por descargar en inglés l0l Saludos bye
 
Volver