Mulan (1998) m-720p Dual Latino-Inglés [Subt. Esp] (Animación)

Maestro Revolver

Well-known member
Miembro del Staff
Administrador
Registro
9 Ago 2012
Mensajes
3.569
Reacciones
59.353
Puntos
113

Reputation:









TÍTULO ORIGINAL: Mulan
AÑO: 1998
DURACIÓN: 88 min.
PAÍS: USA
DIRECTOR: Barry Cook, Tony Bancroft
GUIÓN: Rita Hsiao, Christopher Sanders, Philip Lazebnik, Raymond Singer
REPARTO: Animation
PRODUCTORA: Walt Disney
GÉNERO: Animación. Aventuras. Acción. Comedia. Musical | Dragones. Cine épico
: http://www.imdb.com/title/tt0120762/

PREMIOS: 1998: Nominada al Oscar: Mejor BSO para película de comedia
1998: 2 nominaciones al Globos de Oro: Mejor BSO, mejor canción original
1998: 10 premios Premios Annie, incluyendo mejor película, dirección, guión. 12 nominaciones






Mulan, una joven china hija única de la familia Fa, en lugar de buscar novio, como sus amigas, trata por todos los medios de alistarse en el ejército imperial para evitar que su anciano padre sea llamado a filas para defender al Emperador del acoso de los Hunos. Cuando el emisario imperial lleva a cabo la orden de reclutar a los varones de todas las familias, Mulan se hará pasar por soldado y se someterá a un duro entrenamiento hasta hacerse merecedora de la estima y de la confianza del resto de su escuadrón.
























La pelicula NO tiene ninguna marca... solo colocamos el nombre de esta web en las capturas






Código:
General
Format                                   : Matroska
Format version                           : Version 2
File size                                : 2.38 GiB
Duration                                 : 1h 27mn
Overall bit rate                         : 3 878 Kbps
Movie name                               : www.club-hd.com
Encoded date                             : UTC 2013-04-02 03:13:06
Writing application                      : mkvmerge v5.7.0 ('The Whirlwind') built on Jul  8 2012 20:08:51
Writing library                          : libebml v1.2.3 + libmatroska v1.3.0

Video
ID                                       : 1
Format                                   : AVC
Format/Info                              : Advanced Video Codec
Format profile                           : High@L4.1
Format settings, CABAC                   : Yes
Format settings, ReFrames                : 9 frames
Codec ID                                 : V_MPEG4/ISO/AVC
Duration                                 : 1h 27mn
Bit rate                                 : 2 788 Kbps
Width                                    : 1 212 pixels
Height                                   : 720 pixels
Display aspect ratio                     : 1.683
Frame rate mode                          : Constant
Frame rate                               : 23.976 fps
Color space                              : YUV
Chroma subsampling                       : 4:2:0
Bit depth                                : 8 bits
Scan type                                : Progressive
Bits/(Pixel*Frame)                       : 0.133
Stream size                              : 1.66 GiB (70%)
Title                                    : www.club-hd.com
Writing library                          : x264 core 129 r2245 bc13772
Language                                 : English
Default                                  : Yes
Forced                                   : No

Audio #1
ID                                       : 2
Format                                   : AC-3
Format/Info                              : Audio Coding 3
Mode extension                           : CM (complete main)
Format settings, Endianness              : Big
Codec ID                                 : A_AC3
Duration                                 : 1h 27mn
Bit rate mode                            : Constant
Bit rate                                 : 640 Kbps
Channel(s)                               : 6 channels
Channel positions                        : Front: L C R, Side: L R, LFE
Sampling rate                            : 48.0 KHz
Bit depth                                : 16 bits
Compression mode                         : Lossy
Stream size                              : 402 MiB (17%)
Title                                    : www.club-hd.com  >>  Latino
Language                                 : Spanish
Default                                  : Yes
Forced                                   : No

Audio #2
ID                                       : 3
Format                                   : AC-3
Format/Info                              : Audio Coding 3
Mode extension                           : CM (complete main)
Format settings, Endianness              : Big
Codec ID                                 : A_AC3
Duration                                 : 1h 27mn
Bit rate mode                            : Constant
Bit rate                                 : 448 Kbps
Channel(s)                               : 6 channels
Channel positions                        : Front: L C R, Side: L R, LFE
Sampling rate                            : 48.0 KHz
Bit depth                                : 16 bits
Compression mode                         : Lossy
Stream size                              : 281 MiB (12%)
Title                                    : www.club-hd.com  >>  Inglés
Language                                 : English
Default                                  : No
Forced                                   : No

Text
ID                                       : 4
Format                                   : UTF-8
Codec ID                                 : S_TEXT/UTF8
Codec ID/Info                            : UTF-8 Plain Text
Language                                 : Spanish
Default                                  : No
Forced                                   : No

Menu
00:00:00.000                             : es:Capítulo 01
00:00:59.184                             : es:Capítulo 02
00:03:06.352                             : es:Capítulo 03
00:06:07.075                             : es:Capítulo 04
00:09:06.420                             : es:Capítulo 05
00:11:55.005                             : es:Capítulo 06
00:14:13.811                             : es:Capítulo 07
00:17:22.916                             : es:Capítulo 08
00:20:24.932                             : es:Capítulo 09
00:23:14.142                             : es:Capítulo 10
00:25:26.274                             : es:Capítulo 11
00:26:56.948                             : es:Capítulo 12
00:29:10.582                             : es:Capítulo 13
00:32:54.347                             : es:Capítulo 14
00:34:49.212                             : es:Capítulo 15
00:37:31.248                             : es:Capítulo 16
00:42:07.608                             : es:Capítulo 17
00:45:49.872                             : es:Capítulo 18
00:46:45.552                             : es:Capítulo 19
00:47:33.684                             : es:Capítulo 20
00:49:48.694                             : es:Capítulo 21
00:54:38.274                             : es:Capítulo 22
00:59:49.419                             : es:Capítulo 23
01:04:20.356                             : es:Capítulo 24
01:06:02.124                             : es:Capítulo 25
01:08:47.039                             : es:Capítulo 26
01:11:41.297                             : es:Capítulo 27
01:15:44.122                             : es:Capítulo 28
01:18:53.186                             : es:Capítulo 29
01:20:57.477                             : es:Capítulo 30










Enlaces de Mega y Fireload solo disponibles para Miembros VIP

Compra tu Membresía VIP y apoya a Club-HD!

ATENCIÓN! Tenemos TODO el material de Club-HD disponible por Mega y Fireload, enlaces 100% activos y online hasta la fecha

Llévate tus cuentas Mega PRO II gratis con tu membresía VIP!
Todos los posts vivos con links de Mega y Fireload.
Todo el material de Club-HD desbloqueado y sin publicidad.

Click Aquí para más información.





Enlaces de Mega y Fireload solo disponibles para Miembros VIP

Compra tu Membresía VIP y apoya a Club-HD!

ATENCIÓN! Tenemos TODO el material de Club-HD disponible por Mega y Fireload, enlaces 100% activos y online hasta la fecha

Llévate tus cuentas Mega PRO II gratis con tu membresía VIP!
Todos los posts vivos con links de Mega y Fireload.
Todo el material de Club-HD desbloqueado y sin publicidad.

Click Aquí para más información.




Enlaces de Mega y Fireload solo disponibles para Miembros VIP

Compra tu Membresía VIP y apoya a Club-HD!

ATENCIÓN! Tenemos TODO el material de Club-HD disponible por Mega y Fireload, enlaces 100% activos y online hasta la fecha

Llévate tus cuentas Mega PRO II gratis con tu membresía VIP!
Todos los posts vivos con links de Mega y Fireload.
Todo el material de Club-HD desbloqueado y sin publicidad.

Click Aquí para más información.



Para ver este contenido oculto, debes dar click en una de las siguientes reacciones : Like Like, Love Love, Haha Haha, Wow Wow, Sad Sad, Angry Angry
 
Última edición:

parellanocl

Well-known member
Registro
12 Mar 2013
Mensajes
1.055
Reacciones
53
Puntos
48
Edad
43

Reputation:

muchas gracias por esta gran pelicula y por los grandes aportes que realizan.
 

Usuarios Que Están Viendo Este Tema (Total: 1, Miembros: 0, Invitados: 1)

Arriba