Mulan II (2004) m-720p Dual Latino-Inglés [Subt. Esp] (Animación)

Maestro Revolver

Well-known member
Miembro del Staff
Administrador
Registro
9 Ago 2012
Mensajes
3.569
Reacciones
59.366
Puntos
113

Reputation:









TÍTULO ORIGINAL: Mulan II
AÑO: 2004
DURACIÓN: 74 min.
PAÍS: USA
DIRECTOR: Darrell Rooney, Lynne Southerland
GUIÓN: Michael Lucker, Chris Parker, Roger S.H. Schulman
REPARTO: Animation
PRODUCTORA: Walt Disney Pictures
GÉNERO: Animación. Aventuras. Comedia. Musical. Infantil | Secuela
: http://www.imdb.com/title/tt0279967/






La leyenda de Mulan continúa en esta nueva aventura. La bella y valiente heroína Mulan, siempre acompañada por su dragón guardián, Mushu y sus nuevos amigos, recibe la noticia más emocionante de su vida cuando el General Shang pide su mano en matrimonio, pero las sorpresas acaban de comenzar... El travieso Mushu intentará separar a la feliz pareja durante el tiempo que sea posible para mantener así su trabajo como dragón guardián. Además Mulan y Shang tendrán que escoltar por toda China a tres princesas que se dirigen a celebrar sus respectivos matrimonios, previamente concertados. Cuando Mulan descubre que ninguna de ellas desea estos matrimonios tomará una decisión que cambiará el curso de la historia.
























La pelicula NO tiene ninguna marca... solo colocamos el nombre de esta web en las capturas






Código:
General
Format                                   : Matroska
Format version                           : Version 2
File size                                : 2.10 GiB
Duration                                 : 1h 18mn
Overall bit rate                         : 3 820 Kbps
Movie name                               : www.club-hd.com
Encoded date                             : UTC 2013-04-02 03:15:48
Writing application                      : mkvmerge v5.7.0 ('The Whirlwind') built on Jul  8 2012 20:08:51
Writing library                          : libebml v1.2.3 + libmatroska v1.3.0

Video
ID                                       : 1
Format                                   : AVC
Format/Info                              : Advanced Video Codec
Format profile                           : High@L4.1
Format settings, CABAC                   : Yes
Format settings, ReFrames                : 9 frames
Codec ID                                 : V_MPEG4/ISO/AVC
Duration                                 : 1h 18mn
Bit rate                                 : 2 730 Kbps
Width                                    : 1 280 pixels
Height                                   : 720 pixels
Display aspect ratio                     : 16:9
Frame rate mode                          : Constant
Frame rate                               : 23.976 fps
Color space                              : YUV
Chroma subsampling                       : 4:2:0
Bit depth                                : 8 bits
Scan type                                : Progressive
Bits/(Pixel*Frame)                       : 0.124
Stream size                              : 1.46 GiB (70%)
Title                                    : www.club-hd.com
Writing library                          : x264 core 130 r2273 b3065e6
Language                                 : English
Default                                  : Yes
Forced                                   : No

Audio #1
ID                                       : 2
Format                                   : AC-3
Format/Info                              : Audio Coding 3
Mode extension                           : CM (complete main)
Format settings, Endianness              : Big
Codec ID                                 : A_AC3
Duration                                 : 1h 18mn
Bit rate mode                            : Constant
Bit rate                                 : 640 Kbps
Channel(s)                               : 6 channels
Channel positions                        : Front: L C R, Side: L R, LFE
Sampling rate                            : 48.0 KHz
Bit depth                                : 16 bits
Compression mode                         : Lossy
Stream size                              : 360 MiB (17%)
Title                                    : www.club-hd.com  >>  Latino
Language                                 : Spanish
Default                                  : Yes
Forced                                   : No

Audio #2
ID                                       : 3
Format                                   : AC-3
Format/Info                              : Audio Coding 3
Mode extension                           : CM (complete main)
Format settings, Endianness              : Big
Codec ID                                 : A_AC3
Duration                                 : 1h 18mn
Bit rate mode                            : Constant
Bit rate                                 : 448 Kbps
Channel(s)                               : 6 channels
Channel positions                        : Front: L C R, Side: L R, LFE
Sampling rate                            : 48.0 KHz
Bit depth                                : 16 bits
Compression mode                         : Lossy
Stream size                              : 252 MiB (12%)
Title                                    : www.club-hd.com  >>  Inglés
Language                                 : English
Default                                  : No
Forced                                   : No

Text
ID                                       : 4
Format                                   : UTF-8
Codec ID                                 : S_TEXT/UTF8
Codec ID/Info                            : UTF-8 Plain Text
Language                                 : Spanish
Default                                  : No
Forced                                   : No

Menu
00:00:00.000                             : es:Capítulo 01
00:03:12.317                             : es:Capítulo 02
00:08:30.843                             : es:Capítulo 03
00:12:12.022                             : es:Capítulo 04
00:14:15.354                             : es:Capítulo 05
00:17:16.201                             : es:Capítulo 06
00:19:57.196                             : es:Capítulo 07
00:25:07.088                             : es:Capítulo 08
00:31:51.659                             : es:Capítulo 09
00:38:00.569                             : es:Capítulo 10
00:42:18.953                             : es:Capítulo 11
00:51:12.944                             : es:Capítulo 12
01:02:08.725                             : es:Capítulo 13
01:04:57.977                             : es:Capítulo 14
01:10:14.043                             : es:Capítulo 15
01:13:23.774                             : es:Capítulo 16










Enlaces de Mega y Fireload solo disponibles para Miembros VIP

Compra tu Membresía VIP y apoya a Club-HD!

ATENCIÓN! Tenemos TODO el material de Club-HD disponible por Mega y Fireload, enlaces 100% activos y online hasta la fecha

Llévate tus cuentas Mega PRO II gratis con tu membresía VIP!
Todos los posts vivos con links de Mega y Fireload.
Todo el material de Club-HD desbloqueado y sin publicidad.

Click Aquí para más información.





Enlaces de Mega y Fireload solo disponibles para Miembros VIP

Compra tu Membresía VIP y apoya a Club-HD!

ATENCIÓN! Tenemos TODO el material de Club-HD disponible por Mega y Fireload, enlaces 100% activos y online hasta la fecha

Llévate tus cuentas Mega PRO II gratis con tu membresía VIP!
Todos los posts vivos con links de Mega y Fireload.
Todo el material de Club-HD desbloqueado y sin publicidad.

Click Aquí para más información.



Para ver este contenido oculto, debes dar click en una de las siguientes reacciones : Like Like, Love Love, Haha Haha, Wow Wow, Sad Sad, Angry Angry

 
Última edición:

sharklui

Well-known member
Miembro VIP
Registro
28 Ago 2012
Mensajes
1.026
Reacciones
271
Puntos
83
Ubicación
The Matrix

Reputation:

S_T1

Arrancaste con toda, de nuevo a no darnos tregua con una para subir la otra enseguida, eres el mejor :aplausos: mi internet no da a basto con semejante cantidad aportes y de tan alta calidad, muchas gracias por todos tus esfuerzos para traernos siempre lo mejor :LXR:

Miles de Bendiciones !! victory
 

parellanocl

Well-known member
Registro
12 Mar 2013
Mensajes
1.055
Reacciones
53
Puntos
48
Edad
43

Reputation:

infinitas gracias revolver y max.
mi hija sera feliz con estas movies.
 

temofox

Active member
Registro
16 Feb 2013
Mensajes
582
Reacciones
30
Puntos
28

Reputation:

Por fin se vuelve a ver claro en Clu-HD, Ojala asi siga, de cualquier manera estamos para ayudar, me desconecte unos dias y no supe como quedo eso de que podamos aportar economicamente
 

eljumachi

Well-known member
Miembro VIP
Registro
27 Ago 2012
Mensajes
2.174
Reacciones
339
Puntos
83

Reputation:

Muchas Gracias R-21 estas películas las estaba esperando, Mil gracias.
 

Usuarios Que Están Viendo Este Tema (Total: 1, Miembros: 0, Invitados: 1)

Arriba