Naked Weapon (2002) 1080p BDRip Dual Inglés-Español [Subt. Esp] (Acción. Thriller)

Max

Admin
Miembro del Staff
Administrador
Miembro VIP
Registro
8 Ago 2012
Mensajes
6.002
Ubicación
Disco C




Título original: Chek law dak gung (Naked Weapon)
TÍTULO EN LATINO: Arma desnuda | Asesinas
Año: 2002
Duración: 92 min.
País: Hong Kong
Director: Ching Siu-tung
Guión: Jing Wong
Música: Ken Chan, Kwong Wing Chan
Fotografía: Sung Fai Choi
Reparto: Maggie Q, Anya, Jewel Lee, Daniel Wu, Almen Wong Pui-Ha, Marit Thoresen, Kai Yan Kwok, Renee Nichole Rommeswinkel, Mo Ka Lai, Augustin Aguerreberry, Monica Lo
Productora: Media Asia Films / Jing's Production
Género: Acción. Thriller

http://www.imdb.com/title/tt0341495/?ref_=sr_6






Como un virus contagioso, varias chicas adolescentes, guapas y atléticas, desaparecen una tras otra en diferentes partes del país sin que la policía pueda hacer nada. Detrás de estas desapariciones está Madam M, líder de un grupo de asesinos internacionales. Su plan: convertirles en asesinas profesionales, asesinas que utilicen su cuerpo desnudo como arma letal. Después de seis años de duro entrenamiento sólo tres chicas sobreviven...







































Código:
General
Complete name                            : Naked Weapon (2002) 1080p BDRip Dual Inglés-Español [Subt. Esp].mkv
Format                                   : Matroska
Format version                           : Version 2
File size                                : 5.62 GiB
Duration                                 : 1h 31mn
Overall bit rate                         : 8 790 Kbps
Movie name                               : www.club-hd.com --> Naked Weapon (2002) 1080p BDRip Dual Inglés-Español [Subt. Esp]
Encoded date                             : UTC 2013-06-02 19:25:16
Writing application                      : mkvmerge v5.8.0 ('No Sleep / Pillow') built on Sep  2 2012 15:37:04
Writing library                          : libebml v1.2.3 + libmatroska v1.3.0

Video
ID                                       : 1
Format                                   : AVC
Format/Info                              : Advanced Video Codec
Format profile                           : High@L4.1
Format settings, CABAC                   : Yes
Format settings, ReFrames                : 3 frames
Muxing mode                              : Header stripping
Codec ID                                 : V_MPEG4/ISO/AVC
Duration                                 : 1h 31mn
Bit rate                                 : 8 000 Kbps
Width                                    : 1 920 pixels
Height                                   : 1 072 pixels
Display aspect ratio                     : 16:9
Original display aspect ratio            : 16:9
Frame rate mode                          : Constant
Frame rate                               : 24.000 fps
Color space                              : YUV
Chroma subsampling                       : 4:2:0
Bit depth                                : 8 bits
Scan type                                : Progressive
Bits/(Pixel*Frame)                       : 0.162
Stream size                              : 4.94 GiB (88%)
Title                                    : www.club-hd.com --> Naked Weapon (2002) 1080p BDRip Dual Inglés-Español [Subt. Esp]
Writing library                          : x264 core 120
Encoding settings                        : cabac=1 / ref=4 / deblock=1:-2:-2 / analyse=0x3:0x133 / me=umh / subme=10 / psy=1 / psy_rd=1.00:0.00 / mixed_ref=1 / me_range=24 / chroma_me=1 / trellis=2 / 8x8dct=1 / cqm=0 / deadzone=21,11 / fast_pskip=1 / chroma_qp_offset=-2 / threads=24 / sliced_threads=0 / nr=0 / decimate=1 / interlaced=0 / bluray_compat=0 / constrained_intra=0 / bframes=3 / b_pyramid=1 / b_adapt=1 / b_bias=0 / direct=1 / weightb=1 / open_gop=0 / weightp=2 / keyint=240 / keyint_min=24 / scenecut=40 / intra_refresh=0 / rc_lookahead=50 / rc=abr / mbtree=1 / bitrate=8000 / ratetol=1.0 / qcomp=0.60 / qpmin=3 / qpmax=69 / qpstep=4 / ip_ratio=1.40 / aq=1:1.00
Language                                 : English
Default                                  : Yes
Forced                                   : No
Color primaries                          : BT.709
Transfer characteristics                 : BT.709
Matrix coefficients                      : BT.709

Audio #1
ID                                       : 2
Format                                   : AC-3
Format/Info                              : Audio Coding 3
Mode extension                           : CM (complete main)
Format settings, Endianness              : Big
Muxing mode                              : Header stripping
Codec ID                                 : A_AC3
Duration                                 : 1h 31mn
Bit rate mode                            : Constant
Bit rate                                 : 640 Kbps
Channel(s)                               : 6 channels
Channel positions                        : Front: L C R, Side: L R, LFE
Sampling rate                            : 48.0 KHz
Bit depth                                : 16 bits
Compression mode                         : Lossy
Stream size                              : 419 MiB (7%)
Title                                    : Naked Weapon (2002) - Inglés AC3 5.1
Language                                 : English
Default                                  : Yes
Forced                                   : No

Audio #2
ID                                       : 3
Format                                   : AC-3
Format/Info                              : Audio Coding 3
Mode extension                           : CM (complete main)
Format settings, Endianness              : Big
Muxing mode                              : Header stripping
Codec ID                                 : A_AC3
Duration                                 : 1h 31mn
Bit rate mode                            : Constant
Bit rate                                 : 256 Kbps
Channel(s)                               : 2 channels
Channel positions                        : Front: L R
Sampling rate                            : 48.0 KHz
Bit depth                                : 16 bits
Compression mode                         : Lossy
Stream size                              : 168 MiB (3%)
Title                                    : Naked Weapon (2002) - Español España AC3 2.0
Language                                 : Spanish
Default                                  : No
Forced                                   : No

Text
ID                                       : 4
Format                                   : UTF-8
Codec ID                                 : S_TEXT/UTF8
Codec ID/Info                            : UTF-8 Plain Text
Title                                    : Naked Weapon (2002) - Subtítulos Español
Language                                 : Spanish
Default                                  : Yes
Forced                                   : No








Enlaces de Mega y Google Drive solo disponibles para Miembros VIP

Compra tu Membresía VIP y apoya a Club-HD!

ATENCIÓN! Tenemos TODO el material de Club-HD disponible por Mega y Google Drive, enlaces 100% activos y online hasta la fecha

Llévate tus cuentas Mega PRO III gratis con tu membresía VIP!
Todos los posts vivos con links de Mega y Google Drive.
Todo el material de Club-HD desbloqueado y sin publicidad.

Click Aquí para más información.




Enlaces de Mega y Google Drive solo disponibles para Miembros VIP

Compra tu Membresía VIP y apoya a Club-HD!

ATENCIÓN! Tenemos TODO el material de Club-HD disponible por Mega y Google Drive, enlaces 100% activos y online hasta la fecha

Llévate tus cuentas Mega PRO III gratis con tu membresía VIP!
Todos los posts vivos con links de Mega y Google Drive.
Todo el material de Club-HD desbloqueado y sin publicidad.

Click Aquí para más información.



Para ver este contenido oculto, debes dar click en una de las siguientes reacciones : Like Like, Love Love, Haha Haha, Wow Wow, Sad Sad, Angry Angry
 
Última edición por un moderador:

Usuarios Que Están Viendo Este Tema (Total: 1, Miembros: 0, Invitados: 1)

Quién Leyó Este Tema (Total Miembros: 2)

Arriba