National Lampoon’s Christmas Vacation (1989) 720p Dual Latino-Inglés [Subt. Esp] (Comedia)

Maestro Revolver

Well-known member
Miembro del Staff
Administrador
Registro
9 Ago 2012
Mensajes
3.569
Reacciones
59.346
Puntos
113

Reputation:









TÍTULO ORIGINAL: National Lampoon's Christmas Vacation
AÑO: 1989
DURACIÓN: 97 min.
PAÍS: USA
DIRECTOR: Jeremiah S. Chechik
GUIÓN: John Hughes
REPARTO: Chevy Chase, Beverly D'Angelo, Juliette Lewis, Johnny Galecki, John Randolph, Diane Ladd, E.G. Marshall, Doris Roberts, Randy Quaid, Miriam Flynn, Cody Burger, Ellen Hamilton Latzen
PRODUCTORA: Warner Bros. Pictures
GÉNERO: Comedia | Secuela. Navidad
: http://www.imdb.com/title/tt0097958/






Clark Griswold, movido por un generoso y sentimental espíritu navideño, quiere sorprender a toda su familia con una gran fiesta. La suerte no suele acompañarlo y esta vez no va a ser diferente... Una sucesión de disparatados desastres convertirán la esperadísima sorpresa de Clark en un verdadero caos.
























La pelicula NO tiene ninguna marca... solo colocamos el nombre de esta web en las capturas






Código:
General
Complete name                            : National Lampoon’s Christmas Vacation (1989) 720p Dual Latino-Inglés [Subt. Esp].mkv
Format                                   : Matroska
Format version                           : Version 4 / Version 2
File size                                : 4.51 GiB
Duration                                 : 1h 37mn
Overall bit rate                         : 6 636 Kbps
Movie name                               : www.club-hd.com --> National Lampoon’s Christmas Vacation (1989) 720p Dual Latino-Inglés [Subt. Esp]
Encoded date                             : UTC 2014-12-25 05:34:26
Writing application                      : mkvmerge v7.3.0 ('Nouages') 64bit built on Oct 22 2014 18:53:34
Writing library                          : libebml v1.3.0 + libmatroska v1.4.1

Video
ID                                       : 1
Format                                   : AVC
Format/Info                              : Advanced Video Codec
Format profile                           : High@L4.1
Format settings, CABAC                   : Yes
Format settings, ReFrames                : 5 frames
Codec ID                                 : V_MPEG4/ISO/AVC
Duration                                 : 1h 37mn
Bit rate                                 : 6 251 Kbps
Width                                    : 1 280 pixels
Height                                   : 724 pixels
Display aspect ratio                     : 16:9
Frame rate mode                          : Constant
Frame rate                               : 23.976 fps
Color space                              : YUV
Chroma subsampling                       : 4:2:0
Bit depth                                : 8 bits
Scan type                                : Progressive
Bits/(Pixel*Frame)                       : 0.281
Stream size                              : 4.15 GiB (92%)
Title                                    : National Lampoon’s Christmas Vacation (1989) 720p Dual Latino-Inglés [Subt. Esp]
Writing library                          : x264 core 76 r1271M 496d79d
Encoding settings                        : cabac=1 / ref=5 / deblock=1:-3:-3 / analyse=0x3:0x133 / me=tesa / subme=10 / psy=1 / psy_rd=1.0:0.0 / mixed_ref=1 / me_range=24 / chroma_me=1 / trellis=2 / 8x8dct=1 / cqm=0 / deadzone=6,6 / chroma_qp_offset=-2 / threads=12 / nr=0 / decimate=0 / mbaff=0 / bframes=5 / b_pyramid=0 / b_adapt=2 / b_bias=0 / direct=3 / wpredb=1 / keyint=250 / keyint_min=25 / scenecut=40 / rc_lookahead=60 / rc=2pass / mbtree=1 / bitrate=6251 / ratetol=1.0 / qcomp=0.80 / qpmin=10 / qpmax=51 / qpstep=4 / cplxblur=20.0 / qblur=0.5 / ip_ratio=1.10 / aq=2:1.00
Language                                 : English
Default                                  : Yes
Forced                                   : No

Audio #1
ID                                       : 2
Format                                   : AC-3
Format/Info                              : Audio Coding 3
Mode extension                           : CM (complete main)
Format settings, Endianness              : Big
Codec ID                                 : A_AC3
Duration                                 : 1h 37mn
Bit rate mode                            : Constant
Bit rate                                 : 192 Kbps
Channel(s)                               : 1 channel
Channel positions                        : Front: C
Sampling rate                            : 48.0 KHz
Bit depth                                : 16 bits
Compression mode                         : Lossy
Stream size                              : 133 MiB (3%)
Title                                    : National Lampoon’s Christmas Vacation (1989) - Español Latino AC3 1.0 - 192 Kbps
Language                                 : Spanish
Default                                  : Yes
Forced                                   : No

Audio #2
ID                                       : 3
Format                                   : AC-3
Format/Info                              : Audio Coding 3
Format profile                           : Dolby Digital
Mode extension                           : CM (complete main)
Format settings, Endianness              : Big
Codec ID                                 : A_AC3
Duration                                 : 1h 37mn
Bit rate mode                            : Constant
Bit rate                                 : 192 Kbps
Channel(s)                               : 2 channels
Channel positions                        : Front: L R
Sampling rate                            : 48.0 KHz
Bit depth                                : 16 bits
Compression mode                         : Lossy
Stream size                              : 133 MiB (3%)
Title                                    : National Lampoon’s Christmas Vacation (1989) - Inglés AC3 2.0 - 192 Kbps
Language                                 : English
Default                                  : No
Forced                                   : No

Text
ID                                       : 4
Format                                   : UTF-8
Codec ID                                 : S_TEXT/UTF8
Codec ID/Info                            : UTF-8 Plain Text
Title                                    : National Lampoon’s Christmas Vacation (1989) - Subtítulos Español
Language                                 : Spanish
Default                                  : No
Forced                                   : No

Menu
00:00:00.000                             : en:00:00:00.000
00:02:41.661                             : en:00:02:41.661
00:07:03.298                             : en:00:07:03.298
00:10:53.403                             : en:00:10:53.403
00:12:43.930                             : en:00:12:43.930
00:14:57.814                             : en:00:14:57.814
00:17:33.970                             : en:00:17:33.970
00:19:34.173                             : en:00:19:34.173
00:29:47.744                             : en:00:29:47.744
00:35:45.226                             : en:00:35:45.226
00:41:39.414                             : en:00:41:39.414
00:44:43.556                             : en:00:44:43.556
00:47:26.052                             : en:00:47:26.052
00:48:38.666                             : en:00:48:38.666
00:51:30.879                             : en:00:51:30.879
00:57:31.239                             : en:00:57:31.239
00:59:45.832                             : en:00:59:45.832
01:01:44.618                             : en:01:01:44.618
01:04:18.772                             : en:01:04:18.772
01:07:10.860                             : en:01:07:10.860
01:10:24.929                             : en:01:10:24.929
01:12:01.484                             : en:01:12:01.484
01:16:31.170                             : en:01:16:31.170
01:18:40.925                             : en:01:18:40.925
01:22:34.241                             : en:01:22:34.241
01:25:13.817                             : en:01:25:13.817
01:28:40.732                             : en:01:28:40.732
01:31:21.893                             : en:01:31:21.893
01:33:52.961                             : en:01:33:52.961









Enlaces de Mega y Fireload solo disponibles para Miembros VIP

Compra tu Membresía VIP y apoya a Club-HD!

ATENCIÓN! Tenemos TODO el material de Club-HD disponible por Mega y Fireload, enlaces 100% activos y online hasta la fecha

Llévate tus cuentas Mega PRO II gratis con tu membresía VIP!
Todos los posts vivos con links de Mega y Fireload.
Todo el material de Club-HD desbloqueado y sin publicidad.

Click Aquí para más información.



Enlaces de Mega y Fireload solo disponibles para Miembros VIP

Compra tu Membresía VIP y apoya a Club-HD!

ATENCIÓN! Tenemos TODO el material de Club-HD disponible por Mega y Fireload, enlaces 100% activos y online hasta la fecha

Llévate tus cuentas Mega PRO II gratis con tu membresía VIP!
Todos los posts vivos con links de Mega y Fireload.
Todo el material de Club-HD desbloqueado y sin publicidad.

Click Aquí para más información.


Enlaces de Mega y Fireload solo disponibles para Miembros VIP

Compra tu Membresía VIP y apoya a Club-HD!

ATENCIÓN! Tenemos TODO el material de Club-HD disponible por Mega y Fireload, enlaces 100% activos y online hasta la fecha

Llévate tus cuentas Mega PRO II gratis con tu membresía VIP!
Todos los posts vivos con links de Mega y Fireload.
Todo el material de Club-HD desbloqueado y sin publicidad.

Click Aquí para más información.


Para ver este contenido oculto, debes dar click en una de las siguientes reacciones : Like Like, Love Love, Haha Haha, Wow Wow, Sad Sad, Angry Angry


Para ver este contenido oculto, debes dar click en una de las siguientes reacciones : Like Like, Love Love, Haha Haha, Wow Wow, Sad Sad, Angry Angry


Para ver este contenido oculto, debes dar click en una de las siguientes reacciones : Like Like, Love Love, Haha Haha, Wow Wow, Sad Sad, Angry Angry
 
Última edición:

zacygal

Well-known member
Registro
3 Sep 2012
Mensajes
1.515
Reacciones
1.536
Puntos
113
Edad
49

Reputation:

excelente otra mas de navidad, grax

Desc_g_
 

elgrandario

Well-known member
Registro
29 Ago 2012
Mensajes
1.006
Reacciones
147
Puntos
63
Ubicación
Lima, Perú

Reputation:

Precisa para Navidad que ya se acerca. Todos esperamos que sigan colgando pelas de tipo navideño. Muchas gracias por el aportazo.
 

Poooscul

Member
Registro
28 Ago 2012
Mensajes
634
Reacciones
18
Puntos
18
Edad
42

Reputation:

todas las e Los Lampoon estan buenisimas. Tendras las otras?
 

sunker-123

New member
Registro
27 Ago 2012
Mensajes
2.433
Reacciones
200
Puntos
0
Edad
30

Reputation:

Muchas gracias eres el mejor R21...:dplgar:
 

carlos610

Well-known member
Registro
28 Ago 2012
Mensajes
1.777
Reacciones
961
Puntos
113
Edad
38
Ubicación
angol, araucania

Reputation:

feliz feliz feliz ho ho hoooo ,, que estupendo revolver21 por publicar peliculas navideñas y mas que se acerca esta maravillosa fiesta , ,, esperando futuras publicaciones se le agradece bastante saludos
 

Usuarios Que Están Viendo Este Tema (Total: 1, Miembros: 0, Invitados: 1)

Arriba