Nightwish - End of an era (2009) 720p BDRip [AC3 5.1] (Concierto)

Maestro Revolver 1

Maestro Revolver

Well-known member
Miembro del Staff
Administrador
Registro
9 Ago 2012
Mensajes
3.567








'End of an era' es el espectáculo de la banda finlandesa de power metal sinfónico Nightwish que tuvo lugar en el estadio Hartwall Areena en Helsinki (Finlandia) y fue grabado el 21 de octubre de 2005 durante el concierto final de una larga gira internacional de la banda promocionando su álbum 'Once'. Durante el concierto se puede ver la participación especial del amerindio John Two-Hawks, quien interpreta el tema 'Stone people' de su álbum 'Honor' como introducción a 'Creek Mary's blood', que se caracteriza por el uso de la flauta. Es el último concierto de la cantante Tarja Turunen en el grupo. Los motivos de su salida pueden ser leídos en la carta abierta de la banda hacia ella. (Wikipedia)



Track List:

01 - Intro ('Red warrior' de Hans Zimmer)
02 - Dark chest of wonders
03 - Planet hell
04 - Ever dream
05 - The kinslayer
06 - Phantom of the opera
07 - The siren
08 - Sleeping sun
09 - High hopes
10 - Bless the child
11 - Wishmaster
12 - Slaying the dreamer
13 - Kuolema tekee taiteilijan
14 - Nemo
15 - Ghost love score
16 - Stone people (con John Two-Hawks)
17 - Creek Mary's blood (con John Two-Hawks)
18 - Over the hills and far away
19 - Wish I had an angel
20 - Outro ('All of them' de Hans Zimmer)





























Código:
General
Format                                   : Matroska
Format version                           : Version 2
File size                                : 4.37 GiB
Duration                                 : 1h 43mn
Overall bit rate                         : 6 069 Kbps
Movie name                               : www.club-hd.com
Encoded date                             : UTC 2013-08-06 23:12:58
Writing application                      : mkvmerge v5.7.0 ('The Whirlwind') built on Jul  8 2012 20:08:51
Writing library                          : libebml v1.2.3 + libmatroska v1.3.0

Video
ID                                       : 1
Format                                   : AVC
Format/Info                              : Advanced Video Codec
Format profile                           : High@L4.1
Format settings, CABAC                   : Yes
Format settings, ReFrames                : 4 frames
Codec ID                                 : V_MPEG4/ISO/AVC
Duration                                 : 1h 43mn
Bit rate                                 : 5 427 Kbps
Width                                    : 1 280 pixels
Height                                   : 720 pixels
Display aspect ratio                     : 16:9
Frame rate mode                          : Constant
Frame rate                               : 24.000 fps
Color space                              : YUV
Chroma subsampling                       : 4:2:0
Bit depth                                : 8 bits
Scan type                                : Progressive
Bits/(Pixel*Frame)                       : 0.245
Stream size                              : 3.82 GiB (87%)
Title                                    : www.club-hd.com
Writing library                          : x264 core 104 r1675 2484aa0
Language                                 : English
Default                                  : Yes
Forced                                   : No

Audio
ID                                       : 2
Format                                   : AC-3
Format/Info                              : Audio Coding 3
Mode extension                           : CM (complete main)
Format settings, Endianness              : Big
Codec ID                                 : A_AC3
Duration                                 : 1h 43mn
Bit rate mode                            : Constant
Bit rate                                 : 640 Kbps
Channel(s)                               : 6 channels
Channel positions                        : Front: L C R, Side: L R, LFE
Sampling rate                            : 48.0 KHz
Bit depth                                : 16 bits
Compression mode                         : Lossy
Stream size                              : 472 MiB (11%)
Title                                    : www.club-hd.com >>  AC3 5.1
Language                                 : English
Default                                  : Yes
Forced                                   : No

Menu
00:00:00.000                             : en:01 - Intro ('Red warrior' de Hans Zimmer)
00:00:35.000                             : en:02 - Dark chest of wonders
00:05:07.500                             : en:03 - Planet hell
00:09:51.375                             : en:04 - Ever dream
00:15:18.125                             : en:05 - The kinslayer
00:19:28.375                             : en:06 - Phantom of the opera
00:24:29.000                             : en:07 - The siren
00:29:33.500                             : en:08 - Sleeping sun
00:34:26.250                             : en:09 - High hopes
00:41:21.375                             : en:10 - Bless the child
00:47:46.525                             : en:11 - Wishmaster
00:52:30.500                             : en:12 - Slaying the dreamer
00:57:26.250                             : en:13 - Kuolema tekee taiteilijan
01:01:10.625                             : en:14 - Nemo
01:06:28.250                             : en:15 - Ghost love score
01:16:57.500                             : en:16 - Stone people (con John Two-Hawks)
01:21:06.000                             : en:17 - Creek Mary's blood (con John Two-Hawks)
01:29:45.625                             : en:18 - Over the hills and far away
01:35:11.875                             : en:19 - Wish I had an angel
01:39:33.000                             : en:20 - Outro ('All of them' de Hans Zimmer)








Enlaces de Mega y Google Drive solo disponibles para Miembros VIP

Compra tu Membresía VIP y apoya a Club-HD!

ATENCIÓN! Tenemos TODO el material de Club-HD disponible por Mega y Google Drive, enlaces 100% activos y online hasta la fecha

Llévate tus cuentas Mega PRO III gratis con tu membresía VIP!
Todos los posts vivos con links de Mega y Google Drive.
Todo el material de Club-HD desbloqueado y sin publicidad.

Click Aquí para más información.



Enlaces de Mega y Google Drive solo disponibles para Miembros VIP

Compra tu Membresía VIP y apoya a Club-HD!

ATENCIÓN! Tenemos TODO el material de Club-HD disponible por Mega y Google Drive, enlaces 100% activos y online hasta la fecha

Llévate tus cuentas Mega PRO III gratis con tu membresía VIP!
Todos los posts vivos con links de Mega y Google Drive.
Todo el material de Club-HD desbloqueado y sin publicidad.

Click Aquí para más información.



Para ver este contenido oculto, debes dar click en una de las siguientes reacciones : Like Like, Love Love, Haha Haha, Wow Wow, Sad Sad, Angry Angry



Para ver este contenido oculto, debes dar click en una de las siguientes reacciones : Like Like, Love Love, Haha Haha, Wow Wow, Sad Sad, Angry Angry
 
Última edición por un moderador:
armyfan 0

armyfan

Well-known member
Registro
27 Ago 2012
Mensajes
1.184
No te lo puedo creer!!!, hace poco mas de un mes conoci este grupo, por mi mujer, no seguia este grupo, pero a ella le encanta, asi que lo que sea por ella, que sorpresa le voy a dar, GRACIAS MASTER!!!.
 
Nosferatu 0

Nosferatu

Well-known member
Ex Staff
Miembro VIP
Registro
31 Ago 2012
Mensajes
2.275
Edad
45
Ubicación
Welcome to Hell!!
Uyyyyyuuuuuyyy!!!! cl4pcl4pdance3dance3:sprloc:R0ckin2Pero que impresionante concierto, "End of an era" Lo ultimo que disfrutamos con Tarja junto a NightWish.:aplausos::aplausos::aplausos:

Muchas Gracias por este Gran aporte, vale su peso en ORO.:aplausos::aplausos:

Gracias por Todo como siempre Master y Gracias por atender mi sugerencia Monstruo R22!!Nada se te resiste.:aplausos::aplausos::LXR::LXR:

PD: El que sabe y aprecia la buena música este material no le puede Faltar. ;)
 

Usuarios Que Están Viendo Este Tema (Total: 1, Miembros: 0, Invitados: 1)

Quién Leyó Este Tema (Total Miembros: 2)

Arriba