• Buenos dias amigos del club. Les queremos avisar que ya recuperamos el acceso a las webs de las Membresías VIP y del Paste. Asi que ya pueden comprar sus membresías y descargar todos los estrenos nuevamente.

Nightwish - Showtime Storytime (2013) 720p BDRip [DTS, FLAC, AC3] (Concierto)

Maestro Revolver

Administrador
Registro
9 Ago 2012
Mensajes
3.157
Reacciones (ptje)
55.322

Nightwish-Showtime.jpg





Sinopsis.jpg


Showtime, Storytime es un Blu-ray de la banda de metal sinfónico finlandés Nightwish. Nuclear Blast grabó su actuación en vivo en el Wacken Open Air en Wacken, Alemania el 3 de agosto de 2013. Showtime, Cuentos es la primera producción de Nightwish que ofrece a Floor Jansen en las voces. Al principio ella reemplazó a la vocalista Anette Olzon durante su gira por América del Norte, y el 9 de octubre de 2013, se reveló que ella se convertiría en un miembro oficial de la banda, junto con Troy Donockley.



Track List:

01. Dark Chest Of Wonders
02. Wish I Had An Angel
03. She Is My Sin
04. Ghost River
05. Ever Dream
06. Storytime
07. I Want My Tears Back
08. Nemo
09. Last Of The Wilds
10. Bless The Child
11. Romanticide
12. Amaranth
13. Ghost Love Score
14. Song Of Myself
15. Last Ride Of The Day
16. Outro (Imaginaerum)




Trailer.jpg






Capturas.jpg


1.jpg


2.jpg


3.jpg


4.jpg


5.jpg


6.jpg


7.jpg


8.jpg


9.jpg


10.jpg





MediaInfo.jpg


Código:
General
Format                                   : Matroska
Format version                           : Version 2
File size                                : 5.43 GiB
Duration                                 : 1h 38mn
Overall bit rate mode                    : Variable
Overall bit rate                         : 7 925 Kbps
Movie name                               : www.club-hd.com
Encoded date                             : UTC 2013-12-17 22:11:48
Writing application                      : mkvmerge v5.7.0 ('The Whirlwind') built on Jul  8 2012 20:08:51
Writing library                          : libebml v1.2.3 + libmatroska v1.3.0

Video
ID                                       : 1
Format                                   : AVC
Format/Info                              : Advanced Video Codec
Format profile                           : [email protected]
Format settings, CABAC                   : Yes
Format settings, ReFrames                : 5 frames
Codec ID                                 : V_MPEG4/ISO/AVC
Duration                                 : 1h 38mn
Width                                    : 1 280 pixels
Height                                   : 720 pixels
Display aspect ratio                     : 16:9
Frame rate mode                          : Constant
Frame rate                               : 24.000 fps
Color space                              : YUV
Chroma subsampling                       : 4:2:0
Bit depth                                : 8 bits
Scan type                                : Progressive
Title                                    : www.club-hd.com
Language                                 : English
Default                                  : Yes
Forced                                   : No

Audio #1
ID                                       : 2
Format                                   : DTS
Format/Info                              : Digital Theater Systems
Mode                                     : 16
Format settings, Endianness              : Big
Codec ID                                 : A_DTS
Duration                                 : 1h 38mn
Bit rate mode                            : Constant
Bit rate                                 : 1 509 Kbps
Channel(s)                               : 6 channels
Channel positions                        : Front: L C R, Side: L R, LFE
Sampling rate                            : 48.0 KHz
Bit depth                                : 24 bits
Compression mode                         : Lossy
Stream size                              : 1.03 GiB (19%)
Title                                    : DTS
Language                                 : English
Default                                  : Yes
Forced                                   : No

Audio #2
ID                                       : 3
Format                                   : FLAC
Format/Info                              : Free Lossless Audio Codec
Codec ID                                 : A_FLAC
Duration                                 : 1h 38mn
Bit rate mode                            : Variable
Channel(s)                               : 2 channels
Sampling rate                            : 48.0 KHz
Bit depth                                : 16 bits
Title                                    : FLAC
Writing library                          : libFLAC 1.2.1 (UTC 2007-09-17)
Language                                 : English
Default                                  : No
Forced                                   : No

Audio #3
ID                                       : 4
Format                                   : AC-3
Format/Info                              : Audio Coding 3
Mode extension                           : CM (complete main)
Format settings, Endianness              : Big
Codec ID                                 : A_AC3
Duration                                 : 1h 38mn
Bit rate mode                            : Constant
Bit rate                                 : 640 Kbps
Channel(s)                               : 6 channels
Channel positions                        : Front: L C R, Side: L R, LFE
Sampling rate                            : 48.0 KHz
Bit depth                                : 16 bits
Compression mode                         : Lossy
Stream size                              : 449 MiB (8%)
Title                                    : AC3
Language                                 : English
Default                                  : No
Forced                                   : No

Menu
00:00:00.000                             : en:00:00:00.000
00:01:08.750                             : en:00:01:08.750
00:05:47.500                             : en:00:05:47.500
00:10:38.125                             : en:00:10:38.125
00:15:51.667                             : en:00:15:51.667
00:22:12.292                             : en:00:22:12.292
00:27:49.792                             : en:00:27:49.792
00:33:54.375                             : en:00:33:54.375
00:40:48.958                             : en:00:40:48.958
00:45:39.583                             : en:00:45:39.583
00:52:33.125                             : en:00:52:33.125
00:59:58.958                             : en:00:59:58.958
01:05:41.667                             : en:01:05:41.667
01:10:21.875                             : en:01:10:21.875
01:21:19.167                             : en:01:21:19.167
01:29:32.917                             : en:01:29:32.917
01:34:22.500                             : en:01:34:22.500




Descarga


MEGA.jpg

Tenemos TODO el material de Club-HD disponible por Mega, enlaces 100% activos y online hasta la fecha

Llévate tus cuentas Mega PRO III gratis con tu membresía VIP!
Todos los posts vivos con links de Mega.
Todo el material de Club-HD desbloqueado y sin publicidad.

Obtén más información sobre nuestras Membresías VIP


1FICHIER-BANNER.png


Tenemos TODO el material de Club-HD disponible por Mega, enlaces 100% activos y online hasta la fecha

Llévate tus cuentas Mega PRO III gratis con tu membresía VIP!
Todos los posts vivos con links de Mega.
Todo el material de Club-HD desbloqueado y sin publicidad.

Obtén más información sobre nuestras Membresías VIP


UPLOADED_BANNER.png


Para ver este contenido oculto, debes dar click en el botón"Like", o cualquiera de las otras reacciones:

Me Gusta Me Gusta, Me Encanta Me Encanta, Jaja Jaja, Wow Wow, Triste Triste, Molesto Molesto

OPENLOAD.png


Para ver este contenido oculto, debes dar click en el botón"Like", o cualquiera de las otras reacciones:

Me Gusta Me Gusta, Me Encanta Me Encanta, Jaja Jaja, Wow Wow, Triste Triste, Molesto Molesto
 
Última edición por un moderador:
Gracias revolver, aunque ya lo tengo, pero se agradece que subas conciertos de este estilo :)

PD: puedes suvir el de epica retrospect
 
Muchas Gracias!!! Pero yo paso. Saludos.bye


-Demasiado Pesado para mí..........

20080407121055_demasiado-pesado.jpg


........-Yo opino lo mismo, Patroncito!!! :plmfc:
 
Volver