Ninja III: The Domination (1984) 1080p BDRip Dual Latino-Inglés [Subt. Esp] (Acción. Artes marciales)

Max

Admin

Administrador
Registro
8 Ago 2012
Mensajes
6.190
Reacciones (ptje)
26.869

Ninja_III_The_Domination_POSTER.jpg



Título original: Ninja III: The Domination
Título en Latino: Ninja III: la dominación | Ninja III: Poseída
Año: 1984
Duración: 92 min.
País: Estados Unidos
Director: Sam Firstenberg
Guión: James R. Silke
Música: Udi Harpaz, Misha Segal
Fotografía: Hanania Baer
Reparto: Shô Kosugi, Lucinda Dickey, Jordan Bennett, David Chung, Dale Ishimoto, James Hong, Bob Craig, Pamela Ness, Roy Padilla, Moe Mosley, John LaMotta, Ron Foster
Productora: Golan-Globus Productions / Cannon Films
Género: Acción | Artes marciales. Ninjas. Secuela

IMDb.png
http://www.imdb.com/title/tt0087805/?ref_=fn_al_tt_1




SINOPSIS.png


Una muchacha es poseída por el espíritu maligno de un ninja que reside en una antigua katana. Cuando toma posesión de su cuerpo comete terribles asesinatos. Tan solo otro ninja podrá evitar que el derramamiento de sangre continúe.




YOUTUBE_LOGO.png






CAPTURAS.png


Ninja_III_The_Domination_CAPTURA-1.jpg


Ninja_III_The_Domination_CAPTURA-2.jpg


Ninja_III_The_Domination_CAPTURA-3.jpg


Ninja_III_The_Domination_CAPTURA-4.jpg


Ninja_III_The_Domination_CAPTURA-5.jpg


Ninja_III_The_Domination_CAPTURA-6.jpg


Ninja_III_The_Domination_CAPTURA-7.jpg


Ninja_III_The_Domination_CAPTURA-8.jpg


Ninja_III_The_Domination_CAPTURA-9.jpg


Ninja_III_The_Domination_CAPTURA-10.jpg


Ninja_III_The_Domination_CAPTURA-11.jpg


Ninja_III_The_Domination_CAPTURA-12.jpg





DATOS_TECNICOS.png


Código:
General
Complete name                            : Ninja III - The Domination (1984) 1080p BDRip Dual Latino-Inglés [Subt. Esp].mkv
Format                                   : Matroska
Format version                           : Version 4 / Version 2
File size                                : 7.90 GiB
Duration                                 : 1h 33mn
Overall bit rate                         : 12.2 Mbps
Movie name                               : www.club-hd.com --> Ninja III: The Domination (1984) 1080p BDRip Dual Latino-Inglés [Subt. Esp]
Encoded date                             : UTC 2014-03-23 02:31:28
Writing application                      : mkvmerge v6.8.0 ('Theme for Great Cities') 64bit built on Mar  2 2014 21:34:26
Writing library                          : libebml v1.3.0 + libmatroska v1.4.1

Video
ID                                       : 1
Format                                   : AVC
Format/Info                              : Advanced Video Codec
Format profile                           : [email protected]
Format settings, CABAC                   : No
Format settings, ReFrames                : 2 frames
Codec ID                                 : V_MPEG4/ISO/AVC
Bit rate                                 : 10 000 Kbps
Width                                    : 1 920 pixels
Height                                   : 1 072 pixels
Display aspect ratio                     : 16:9
Frame rate mode                          : Variable
Color space                              : YUV
Chroma subsampling                       : 4:2:0
Bit depth                                : 8 bits
Scan type                                : Progressive
Title                                    : Ninja III: The Domination (1984) 1080p BDRip Dual Latino-Inglés [Subt. Esp]
Writing library                          : x264 core 112
Encoding settings                        : cabac=0 / ref=1 / deblock=1:0:0 / analyse=0x1:0x111 / me=umh / subme=5 / psy=1 / psy_rd=0.00:0.00 / mixed_ref=0 / me_range=16 / chroma_me=1 / trellis=0 / 8x8dct=0 / cqm=0 / deadzone=21,11 / fast_pskip=0 / chroma_qp_offset=0 / threads=6 / sliced_threads=0 / nr=0 / decimate=1 / interlaced=0 / constrained_intra=0 / bframes=3 / b_pyramid=0 / b_adapt=1 / b_bias=0 / direct=1 / weightb=0 / open_gop=0 / weightp=0 / keyint=240 / keyint_min=23 / scenecut=40 / intra_refresh=0 / rc_lookahead=40 / rc=abr / mbtree=1 / bitrate=10000 / ratetol=1.0 / qcomp=0.60 / qpmin=3 / qpmax=51 / qpstep=4 / ip_ratio=1.40 / aq=1:1.00
Language                                 : English
Default                                  : Yes
Forced                                   : No
Color primaries                          : BT.709
Transfer characteristics                 : BT.709
Matrix coefficients                      : BT.709

Audio #1
ID                                       : 2
Format                                   : AC-3
Format/Info                              : Audio Coding 3
Mode extension                           : CM (complete main)
Format settings, Endianness              : Big
Codec ID                                 : A_AC3
Duration                                 : 1h 33mn
Bit rate mode                            : Constant
Bit rate                                 : 192 Kbps
Channel(s)                               : 2 channels
Channel positions                        : Front: L R
Sampling rate                            : 48.0 KHz
Bit depth                                : 16 bits
Compression mode                         : Lossy
Stream size                              : 128 MiB (2%)
Title                                    : Ninja III: The Domination (1984) - Español Latino AC3 2.0
Language                                 : Spanish
Default                                  : Yes
Forced                                   : No

Audio #2
ID                                       : 3
Format                                   : AC-3
Format/Info                              : Audio Coding 3
Mode extension                           : CM (complete main)
Format settings, Endianness              : Big
Codec ID                                 : A_AC3
Duration                                 : 1h 33mn
Bit rate mode                            : Constant
Bit rate                                 : 640 Kbps
Channel(s)                               : 2 channels
Channel positions                        : Front: L R
Sampling rate                            : 48.0 KHz
Bit depth                                : 16 bits
Compression mode                         : Lossy
Stream size                              : 426 MiB (5%)
Title                                    : Ninja III: The Domination (1984) - Inglés AC3 2.0
Language                                 : English
Default                                  : No
Forced                                   : No

Audio #3
ID                                       : 4
Format                                   : DTS
Format/Info                              : Digital Theater Systems
Mode                                     : 16
Format settings, Endianness              : Big
Codec ID                                 : A_DTS
Duration                                 : 1h 33mn
Bit rate mode                            : Constant
Bit rate                                 : 1 509 Kbps
Channel(s)                               : 2 channels
Channel positions                        : Front: L R
Sampling rate                            : 48.0 KHz
Bit depth                                : 24 bits
Compression mode                         : Lossy
Stream size                              : 1 004 MiB (12%)
Title                                    : Ninja III: The Domination (1984) - Inglés DTS 2.0
Language                                 : English
Default                                  : No
Forced                                   : No

Text
ID                                       : 5
Format                                   : UTF-8
Codec ID                                 : S_TEXT/UTF8
Codec ID/Info                            : UTF-8 Plain Text
Title                                    : Ninja III: The Domination (1984) - Subtítulos Español
Language                                 : Spanish
Default                                  : No
Forced                                   : No

Menu
00:00:00.000                             : en:Chapter 1
00:07:34.973                             : en:Chapter 2
00:17:22.184                             : en:Chapter 3
00:26:14.174                             : en:Chapter 4
00:35:57.757                             : en:Chapter 5
00:45:06.305                             : en:Chapter 6
00:54:38.919                             : en:Chapter 7
01:02:29.514                             : en:Chapter 8
01:12:35.494                             : en:Chapter 9
01:22:37.304                             : en:Chapter 10
01:29:35.180                             : en:Chapter 11
01:33:00.885                             : en:Chapter 12




CONTRASE%C3%91A-FINAL.png


Código:
www.club-hd.com



DESCARGA.png



MEGA.jpg

Tenemos TODO el material de Club-HD disponible por Mega, enlaces 100% activos y online hasta la fecha

Llévate tus cuentas Mega PRO III gratis con tu membresía VIP!
Todos los posts vivos con links de Mega.
Todo el material de Club-HD desbloqueado y sin publicidad.

Obtén más información sobre nuestras Membresías VIP



UPLOADED_BANNER.png

Para ver este contenido oculto, debes dar click en el botón"Like", o cualquiera de las otras reacciones:

Me Gusta Me Gusta, Me Encanta Me Encanta, Jaja Jaja, Wow Wow, Triste Triste, Molesto Molesto
 
Última edición:
Gracias MAX ke buenas memorias de la infancia me acabas de traer cuando keria ser NINJA KARATEKA jajaja pero me espero a la 720p gracias de nuevo maestro.
 
  • Me Encanta
Reacciones: Max
Un clásico con Sho Kosugi. Pésima historia pero una gran calidad de ejercicio marcial.
 
  • Me Encanta
Reacciones: Max
Volver