No (2012) 720p BDRip Audio Latino (Drama. Política. Dictadura)

Maestro Revolver

Administrador
Registro
9 Ago 2012
Mensajes
3.157
Reacciones (ptje)
54.925


No.jpg




FichaTecnica.jpg


TÍTULO ORIGINAL: No
AÑO: 2012
DURACIÓN: 116 min.
PAÍS: Chile
DIRECTOR: Pablo Larraín
GUIÓN: Pedro Peirano
REPARTO: Gael García Bernal, Alfredo Castro, Luis Gnecco, Antonia Zegers, Néstor Cantillana, Alejandro Goic, Diego Muñoz, Jaime Vadell, Marcial Tagle, Manuela Oyarzún, Pascal Montero, José Manuel Salcedo, Enrique Garcia
PRODUCTORA: Coproducción Chile-México-Estados Unidos; Fabula production / Participant Media / Funny Balloons
GÉNERO: Drama. Comedia | Comedia negra. Política. Dictadura chilena. Años 80
imdb-logo.png
: http://www.imdb.com/title/tt2059255/


Premios: 2012: Oscar: nominada a la mejor película de habla no inglesa
2012: Festival de Cannes: Premio Quincena de Realizadores a la mejor película
2012: Festival de La Habana: Mejor película
2012: Premios Ariel: Nominada a Mejor película iberoamericana





Sinopsis.jpg


René Saavedra (Gael García Bernal) es un ejecutivo de publicidad que regresa a Chile tras su exilio en México y diseña una brillante y optimista campaña que propugna el "No" al plebiscito chileno de 1988. Su objetivo es poner fin a la dictadura militar y derrocar a Augusto Pinochet.




Trailer.jpg






Capturas.jpg


1.jpg


2.jpg


3.jpg


4.jpg


5.jpg


6.jpg


La pelicula NO tiene ninguna marca... solo colocamos el nombre de esta web en las capturas




MediaInfo.jpg


Código:
General
Format                                   : Matroska
Format version                           : Version 2
File size                                : 3.61 GiB
Duration                                 : 1h 57mn
Overall bit rate                         : 4 386 Kbps
Movie name                               : www.club-hd.com
Encoded date                             : UTC 2013-06-09 21:06:51
Writing application                      : mkvmerge v5.7.0 ('The Whirlwind') built on Jul  8 2012 20:08:51
Writing library                          : libebml v1.2.3 + libmatroska v1.3.0

Video
ID                                       : 1
Format                                   : AVC
Format/Info                              : Advanced Video Codec
Format profile                           : [email protected]
Format settings, CABAC                   : Yes
Format settings, ReFrames                : 4 frames
Codec ID                                 : V_MPEG4/ISO/AVC
Duration                                 : 1h 57mn
Bit rate                                 : 4 000 Kbps
Width                                    : 1 280 pixels
Height                                   : 914 pixels
Display aspect ratio                     : 1.399
Original display aspect ratio            : 1.400
Frame rate mode                          : Constant
Frame rate                               : 24.019 fps
Color space                              : YUV
Chroma subsampling                       : 4:2:0
Bit depth                                : 8 bits
Scan type                                : Progressive
Bits/(Pixel*Frame)                       : 0.142
Stream size                              : 3.17 GiB (88%)
Title                                    : www.club-hd.com
Writing library                          : x264 core 130 r2273 b3065e6
Language                                 : Spanish
Default                                  : Yes
Forced                                   : No
Color primaries                          : BT.709
Transfer characteristics                 : BT.709
Matrix coefficients                      : BT.709

Audio
ID                                       : 2
Format                                   : AC-3
Format/Info                              : Audio Coding 3
Mode extension                           : CM (complete main)
Format settings, Endianness              : Big
Codec ID                                 : A_AC3
Duration                                 : 1h 57mn
Bit rate mode                            : Constant
Bit rate                                 : 448 Kbps
Channel(s)                               : 6 channels
Channel positions                        : Front: L C R, Side: L R, LFE
Sampling rate                            : 48.0 KHz
Bit depth                                : 16 bits
Compression mode                         : Lossy
Stream size                              : 378 MiB (10%)
Title                                    : www.club-hd.com
Language                                 : Spanish
Default                                  : Yes
Forced                                   : No

Menu
00:00:00.000                             : en:Chapter 1
00:20:07.704                             : en:Chapter 2
00:36:34.815                             : en:Chapter 3
00:48:49.132                             : en:Chapter 4
01:02:05.511                             : en:Chapter 5
01:15:37.739                             : en:Chapter 6
01:33:10.583                             : en:Chapter 7
01:47:12.382                             : en:Chapter 8



Importante: El bluray salio con mala calidad, me imagino que a propósito. En las capturas se puede apreciar la calidad de imagen




Descarga.jpg



MEGA.jpg

Tenemos TODO el material de Club-HD disponible por Mega, enlaces 100% activos y online hasta la fecha

Llévate tus cuentas Mega PRO III gratis con tu membresía VIP!
Todos los posts vivos con links de Mega.
Todo el material de Club-HD desbloqueado y sin publicidad.

Obtén más información sobre nuestras Membresías VIP


UPLOADED_BANNER.png

Para ver este contenido oculto, debes dar click en el botón"Like", o cualquiera de las otras reacciones:

Me Gusta Me Gusta, Me Encanta Me Encanta, Jaja Jaja, Wow Wow, Triste Triste, Molesto Molesto



 
Última edición por un moderador:
Desc_g_ Que gran película ! deseaba verla ! yo viví todo eso en mi país y hay muchos jóvenes en la actualidad que no se dan cuenta de la importancia de la Democracia en Chile !! ojala abran los ojos con esta película!
gracias master!
 
Wooow , que manera de arrancar la semana ehehhhe , muchas gracias R22 !!!Tb_up3:aplausos:
 
Gracias por la película master
 
Última edición por un moderador:
Gracias Revo, Saludos.
 
Volver