Nothing Left to Fear (2013) 720p BDRip Audio Inglés [Subt. Esp] (Terror)

Maestro Revolver

Administrador
Registro
9 Ago 2012
Mensajes
3.157
Reacciones (ptje)
55.034


Nothing-Left-To-Fear.jpg




FichaTecnica.jpg


TÍTULO ORIGINAL: Nothing Left to Fear
AÑO: 2013
DURACIÓN: 100 min.
PAÍS: USA
DIRECTOR: Anthony Leonardi III
GUIÓN: Jonathan W.C. Mills
REPARTO: Anne Heche, James Tupper, Ethan Peck, Rebekah Brandes, Carter Cabassa, Wayne Pére, Jennifer Stone, Clancy Brown
PRODUCTORA: Anchor Bay Films / Slasher Films / Movie Package Company (MPC)
GÉNERO: Terror
imdb-logo.png
: http://www.imdb.com/title/tt1662293/




Sinopsis.jpg


Wendy y Dan viajan junto con sus hijos a la pequeña y aparentemente tranquila localidad de Stull (Kansas). Él es el nuevo pastor del pueblo. Nada más llegar comienzan a sucederse extraños y terroríficos acontecimientos que amenazan la paz e incluso la vida de la familia. Primera producción de Slasher Films, compañía creada por el guitarrista Slash, ópera prima de su director, que parte de la leyenda negra de Stull, considerada por muchos como una de las siete puertas de entrada al infierno.




Trailer.jpg






Capturas.jpg


1.jpg


2.jpg


3.jpg


4.jpg


La pelicula NO tiene ninguna marca... solo colocamos el nombre de esta web en las capturas




MediaInfo.jpg


Código:
General
Format                                   : Matroska
Format version                           : Version 2
File size                                : 4.37 GiB
Duration                                 : 1h 40mn
Overall bit rate                         : 6 227 Kbps
Movie name                               : www.club-hd.com
Encoded date                             : UTC 2013-10-10 15:39:08
Writing application                      : mkvmerge v5.7.0 ('The Whirlwind') built on Jul  8 2012 20:08:51
Writing library                          : libebml v1.2.3 + libmatroska v1.3.0

Video
ID                                       : 1
Format                                   : AVC
Format/Info                              : Advanced Video Codec
Format profile                           : [email protected]
Format settings, CABAC                   : Yes
Format settings, ReFrames                : 5 frames
Codec ID                                 : V_MPEG4/ISO/AVC
Duration                                 : 1h 40mn
Bit rate                                 : 5 586 Kbps
Width                                    : 1 280 pixels
Height                                   : 544 pixels
Display aspect ratio                     : 2.35:1
Frame rate mode                          : Constant
Frame rate                               : 23.976 fps
Color space                              : YUV
Chroma subsampling                       : 4:2:0
Bit depth                                : 8 bits
Scan type                                : Progressive
Bits/(Pixel*Frame)                       : 0.335
Stream size                              : 3.83 GiB (88%)
Title                                    : www.club-hd.com
Writing library                          : x264 core 133 r2334 a3ac64b
Language                                 : English
Default                                  : Yes
Forced                                   : No

Audio
ID                                       : 2
Format                                   : AC-3
Format/Info                              : Audio Coding 3
Mode extension                           : CM (complete main)
Format settings, Endianness              : Big
Codec ID                                 : A_AC3
Duration                                 : 1h 40mn
Bit rate mode                            : Constant
Bit rate                                 : 640 Kbps
Channel(s)                               : 6 channels
Channel positions                        : Front: L C R, Side: L R, LFE
Sampling rate                            : 48.0 KHz
Bit depth                                : 16 bits
Compression mode                         : Lossy
Stream size                              : 460 MiB (10%)
Title                                    : www.club-hd.com
Language                                 : English
Default                                  : Yes
Forced                                   : No

Text
ID                                       : 3
Format                                   : UTF-8
Codec ID                                 : S_TEXT/UTF8
Codec ID/Info                            : UTF-8 Plain Text
Title                                    : www.club-hd.com
Language                                 : Spanish
Default                                  : Yes
Forced                                   : No




Descarga.jpg



MEGA.jpg

Tenemos TODO el material de Club-HD disponible por Mega, enlaces 100% activos y online hasta la fecha

Llévate tus cuentas Mega PRO III gratis con tu membresía VIP!
Todos los posts vivos con links de Mega.
Todo el material de Club-HD desbloqueado y sin publicidad.

Obtén más información sobre nuestras Membresías VIP


UPLOADED_BANNER.png

Para ver este contenido oculto, debes dar click en el botón"Like", o cualquiera de las otras reacciones:

Me Gusta Me Gusta, Me Encanta Me Encanta, Jaja Jaja, Wow Wow, Triste Triste, Molesto Molesto



 
Última edición por un moderador:
Volver