Now You See Me (2013) EXTENDED 1080p BDRip Dual Latino-Inglés [Subt. Esp] (Thriller)

Maestro Revolver

Administrador
9 Ago 2012
3.157
54.691


Now You See Me (2013) EXTENDED 1080p BDRip Dual Latino-Inglés [Subt. Esp] (Thriller)




Now You See Me (2013) EXTENDED 1080p BDRip Dual Latino-Inglés [Subt. Esp] (Thriller)


TÍTULO ORIGINAL: Now You See Me
AÑO: 2013
DURACIÓN: 118 min.
PAÍS: USA
DIRECTOR: Louis Leterrier
GUIÓN: Boaz Yakin, Edward Ricourt, Ed Solomon (Historia: Boaz Yakin, Edward Ricourt)
REPARTO: Jesse Eisenberg, Dave Franco, Morgan Freeman, Mark Ruffalo, Isla Fisher, Mélanie Laurent, Woody Harrelson, Michael Caine, Common, Michael Kelly, José Garcia, David Warshofsky, Jessica Lindsey, Caitriona Balfe, Stephanie Honore
PRODUCTORA: Summit Entertainment / Kurtzman Orci Paper Products / See Me Louisiana
GÉNERO: Thriller | Magia. Robos & Atracos
Now You See Me (2013) EXTENDED 1080p BDRip Dual Latino-Inglés [Subt. Esp] (Thriller)
: http://www.imdb.com/title/tt1670345/




Now You See Me (2013) EXTENDED 1080p BDRip Dual Latino-Inglés [Subt. Esp] (Thriller)


Un equipo del FBI debe enfrentarse a una banda de criminales expertos en magia que se dedican a atracar bancos. Son "los cuatro jinetes”, un grupo formado por los mejores ilusionistas del mundo. Durante los atracos, dirigidos siempre contra hombres de negocios corruptos, hacen llover el dinero robado sobre los espectadores, ante la atónita mirada de un equipo de élite del FBI que les sigue la pista.




Now You See Me (2013) EXTENDED 1080p BDRip Dual Latino-Inglés [Subt. Esp] (Thriller)






Now You See Me (2013) EXTENDED 1080p BDRip Dual Latino-Inglés [Subt. Esp] (Thriller)


Now You See Me (2013) EXTENDED 1080p BDRip Dual Latino-Inglés [Subt. Esp] (Thriller)


Now You See Me (2013) EXTENDED 1080p BDRip Dual Latino-Inglés [Subt. Esp] (Thriller)


Now You See Me (2013) EXTENDED 1080p BDRip Dual Latino-Inglés [Subt. Esp] (Thriller)


Now You See Me (2013) EXTENDED 1080p BDRip Dual Latino-Inglés [Subt. Esp] (Thriller)


Now You See Me (2013) EXTENDED 1080p BDRip Dual Latino-Inglés [Subt. Esp] (Thriller)


Now You See Me (2013) EXTENDED 1080p BDRip Dual Latino-Inglés [Subt. Esp] (Thriller)


Now You See Me (2013) EXTENDED 1080p BDRip Dual Latino-Inglés [Subt. Esp] (Thriller)


Now You See Me (2013) EXTENDED 1080p BDRip Dual Latino-Inglés [Subt. Esp] (Thriller)


Now You See Me (2013) EXTENDED 1080p BDRip Dual Latino-Inglés [Subt. Esp] (Thriller)


La pelicula NO tiene ninguna marca... solo colocamos el nombre de esta web en las capturas




Now You See Me (2013) EXTENDED 1080p BDRip Dual Latino-Inglés [Subt. Esp] (Thriller)


Código:
General
Format                                   : Matroska
Format version                           : Version 2
File size                                : 9.84 GiB
Duration                                 : 2h 4mn
Overall bit rate                         : 11.3 Mbps
Movie name                               : www.club-hd.com
Encoded date                             : UTC 2013-08-24 01:17:43
Writing application                      : mkvmerge v5.7.0 ('The Whirlwind') built on Jul  8 2012 20:08:51
Writing library                          : libebml v1.2.3 + libmatroska v1.3.0

Video
ID                                       : 1
Format                                   : AVC
Format/Info                              : Advanced Video Codec
Format profile                           : [email protected]
Format settings, CABAC                   : Yes
Format settings, ReFrames                : 5 frames
Codec ID                                 : V_MPEG4/ISO/AVC
Duration                                 : 2h 4mn
Bit rate                                 : 8 519 Kbps
Width                                    : 1 920 pixels
Height                                   : 800 pixels
Display aspect ratio                     : 2.40:1
Frame rate mode                          : Constant
Frame rate                               : 23.976 fps
Color space                              : YUV
Chroma subsampling                       : 4:2:0
Bit depth                                : 8 bits
Scan type                                : Progressive
Bits/(Pixel*Frame)                       : 0.231
Stream size                              : 7.22 GiB (73%)
Title                                    : www.club-hd.com
Writing library                          : x264 core 133 r2334 a3ac64b
Language                                 : English
Default                                  : Yes
Forced                                   : No

Audio #1
ID                                       : 2
Format                                   : AC-3
Format/Info                              : Audio Coding 3
Mode extension                           : CM (complete main)
Format settings, Endianness              : Big
Codec ID                                 : A_AC3
Duration                                 : 2h 4mn
Bit rate mode                            : Constant
Bit rate                                 : 640 Kbps
Channel(s)                               : 6 channels
Channel positions                        : Front: L C R, Side: L R, LFE
Sampling rate                            : 48.0 KHz
Bit depth                                : 16 bits
Compression mode                         : Lossy
Stream size                              : 571 MiB (6%)
Title                                    : www.club-hd.com > Latino AC3 5.1
Language                                 : Spanish
Default                                  : Yes
Forced                                   : No

Audio #2
ID                                       : 3
Format                                   : AC-3
Format/Info                              : Audio Coding 3
Mode extension                           : CM (complete main)
Format settings, Endianness              : Big
Codec ID                                 : A_AC3
Duration                                 : 2h 4mn
Bit rate mode                            : Constant
Bit rate                                 : 640 Kbps
Channel(s)                               : 6 channels
Channel positions                        : Front: L C R, Side: L R, LFE
Sampling rate                            : 48.0 KHz
Bit depth                                : 16 bits
Compression mode                         : Lossy
Stream size                              : 571 MiB (6%)
Title                                    : www.club-hd.com > Inglés AC3 5.1
Language                                 : English
Default                                  : No
Forced                                   : No

Audio #3
ID                                       : 4
Format                                   : DTS
Format/Info                              : Digital Theater Systems
Mode                                     : 16
Format settings, Endianness              : Big
Codec ID                                 : A_DTS
Duration                                 : 2h 4mn
Bit rate mode                            : Constant
Bit rate                                 : 1 509 Kbps
Channel(s)                               : 6 channels
Channel positions                        : Front: L C R, Side: L R, LFE
Sampling rate                            : 48.0 KHz
Bit depth                                : 24 bits
Compression mode                         : Lossy
Stream size                              : 1.32 GiB (13%)
Title                                    : www.club-hd.com > Inglés DTS 5.1
Language                                 : English
Default                                  : No
Forced                                   : No

Text
ID                                       : 5
Format                                   : UTF-8
Codec ID                                 : S_TEXT/UTF8
Codec ID/Info                            : UTF-8 Plain Text
Language                                 : Spanish
Default                                  : No
Forced                                   : No

Menu
00:00:00.000                             : en:00:00:00.000
00:08:26.548                             : en:00:08:26.548
00:14:41.923                             : en:00:14:41.923
00:21:25.868                             : en:00:21:25.868
00:32:02.003                             : en:00:32:02.003
00:39:29.158                             : en:00:39:29.158
00:47:07.199                             : en:00:47:07.199
00:56:43.441                             : en:00:56:43.441
01:04:35.371                             : en:01:04:35.371
01:10:23.135                             : en:01:10:23.135
01:20:04.549                             : en:01:20:04.549
01:29:01.002                             : en:01:29:01.002
01:35:22.883                             : en:01:35:22.883
01:44:06.281                             : en:01:44:06.281
01:45:47.507                             : en:01:45:47.507
01:54:24.607                             : en:01:54:24.607




Now You See Me (2013) EXTENDED 1080p BDRip Dual Latino-Inglés [Subt. Esp] (Thriller)



Now You See Me (2013) EXTENDED 1080p BDRip Dual Latino-Inglés [Subt. Esp] (Thriller)

Enlaces de Mega solo disponibles para Miembros VIP

Compra tu Membresía VIP y apoya a Club-HD!

ATENCIÓN! Tenemos TODO el material de Club-HD disponible por Mega, enlaces 100% activos y online hasta la fecha

Llévate tus cuentas Mega PRO III gratis con tu membresía VIP!
Todos los posts vivos con links de Mega.
Todo el material de Club-HD desbloqueado y sin publicidad.

Click Aquí para más información.
Now You See Me (2013) EXTENDED 1080p BDRip Dual Latino-Inglés [Subt. Esp] (Thriller)

Enlaces de Mega solo disponibles para Miembros VIP

Compra tu Membresía VIP y apoya a Club-HD!

ATENCIÓN! Tenemos TODO el material de Club-HD disponible por Mega, enlaces 100% activos y online hasta la fecha

Llévate tus cuentas Mega PRO III gratis con tu membresía VIP!
Todos los posts vivos con links de Mega.
Todo el material de Club-HD desbloqueado y sin publicidad.

Click Aquí para más información.
Now You See Me (2013) EXTENDED 1080p BDRip Dual Latino-Inglés [Subt. Esp] (Thriller)

Para ver este contenido oculto, debes dar click en el botón "Like", o cualquiera de las otras reacciones:

Me Gusta Me Gusta, Me Encanta Me Encanta, Jaja Jaja, Wow Wow, Triste Triste, Molesto Molesto
 
Última edición por un moderador:
27 Ago 2012
203
3
Re: Now You See Me (2013) 1080p BDRip Dual Latino-Inglés [Subt. Esp] (Thriller)

gracias master a descargar se ha dicho.
 
Arriba