Nowhere to Run (1993) m-720p BDRip Dual Latino-Inglés [Subt. Esp] (Acción. Drama)

Maestro Revolver

Well-known member
Miembro del Staff
Administrador
Registro
9 Ago 2012
Mensajes
3.567








TÍTULO ORIGINAL: Nowhere to Run
AÑO: 1993
DURACIÓN: 90 min.
PAÍS: USA
DIRECTOR: Robert Harmon
GUIÓN: Argumento: Richard Marquand & Joe Eszterhas
REPARTO: Jean-Claude Van Damme, Rosanna Arquette, Joss Ackland, Kieran Culkin, Ted Levine, Tiffany Taubman, Edward Blatchford, Anthony Starke, Sven-Ole Thorsen, Chuck Zito
PRODUCTORA: Columbia Pictures
GÉNERO: Acción. Drama
: http://www.imdb.com/title/tt0107711/






Versión moderna del western "Raices profundas". Tras una osada fuga de un furgón policial, Sam Gillen busca un lugar donde ocultarse. En la huida llega hasta la finca de la viuda Clydie, que en esos momentos se enfrenta a un grupo de empresarios que quieren arrebatarle sus tierras. Pero Sam no está dispuesto a consentirlo.
























La pelicula NO tiene ninguna marca... solo colocamos el nombre de esta web en las capturas






Código:
General
Format                                   : Matroska
Format version                           : Version 2
File size                                : 2.40 GiB
Duration                                 : 1h 34mn
Overall bit rate                         : 3 641 Kbps
Movie name                               : www.club-hd.com
Encoded date                             : UTC 2013-10-02 20:27:17
Writing application                      : mkvmerge v5.7.0 ('The Whirlwind') built on Jul  8 2012 20:08:51
Writing library                          : libebml v1.2.3 + libmatroska v1.3.0

Video
ID                                       : 1
Format                                   : AVC
Format/Info                              : Advanced Video Codec
Format profile                           : High@L4.1
Format settings, CABAC                   : Yes
Format settings, ReFrames                : 4 frames
Codec ID                                 : V_MPEG4/ISO/AVC
Duration                                 : 1h 34mn
Bit rate                                 : 3 001 Kbps
Width                                    : 1 280 pixels
Height                                   : 696 pixels
Display aspect ratio                     : 1.85:1
Frame rate mode                          : Constant
Frame rate                               : 23.976 fps
Color space                              : YUV
Chroma subsampling                       : 4:2:0
Bit depth                                : 8 bits
Scan type                                : Progressive
Bits/(Pixel*Frame)                       : 0.140
Stream size                              : 1.93 GiB (80%)
Title                                    : www.club-hd.com
Writing library                          : x264 core 128 r2216 198a7ea
Language                                 : English
Default                                  : Yes
Forced                                   : No

Audio #1
ID                                       : 2
Format                                   : AC-3
Format/Info                              : Audio Coding 3
Mode extension                           : CM (complete main)
Format settings, Endianness              : Big
Codec ID                                 : A_AC3
Duration                                 : 1h 34mn
Bit rate mode                            : Constant
Bit rate                                 : 192 Kbps
Channel(s)                               : 2 channels
Channel positions                        : Front: L R
Sampling rate                            : 48.0 KHz
Bit depth                                : 16 bits
Compression mode                         : Lossy
Delay relative to video                  : 200ms
Stream size                              : 130 MiB (5%)
Title                                    : www.club-hd.com  >>  Latino
Language                                 : Spanish
Default                                  : Yes
Forced                                   : No

Audio #2
ID                                       : 3
Format                                   : AC-3
Format/Info                              : Audio Coding 3
Mode extension                           : CM (complete main)
Format settings, Endianness              : Big
Codec ID                                 : A_AC3
Duration                                 : 1h 34mn
Bit rate mode                            : Constant
Bit rate                                 : 448 Kbps
Channel(s)                               : 2 channels
Channel positions                        : Front: L R
Sampling rate                            : 48.0 KHz
Bit depth                                : 16 bits
Compression mode                         : Lossy
Stream size                              : 302 MiB (12%)
Title                                    : www.club-hd.com  >>  Inglés
Language                                 : English
Default                                  : No
Forced                                   : No

Text
ID                                       : 4
Format                                   : UTF-8
Codec ID                                 : S_TEXT/UTF8
Codec ID/Info                            : UTF-8 Plain Text
Language                                 : Spanish
Default                                  : No
Forced                                   : No

Menu
00:00:00.000                             : en:00:00:00.000
00:06:16.543                             : en:00:06:16.543
00:11:23.141                             : en:00:11:23.141
00:20:33.858                             : en:00:20:33.858
00:26:13.530                             : en:00:26:13.530
00:31:30.889                             : en:00:31:30.889
00:38:51.663                             : en:00:38:51.663
00:46:41.173                             : en:00:46:41.173
00:48:45.923                             : en:00:48:45.923
00:54:19.339                             : en:00:54:19.339
01:00:10.148                             : en:01:00:10.148
01:06:52.050                             : en:01:06:52.050
01:12:14.997                             : en:01:12:14.997
01:19:34.186                             : en:01:19:34.186
01:24:00.452                             : en:01:24:00.452
01:27:21.736                             : en:01:27:21.736








Enlaces de Mega y Google Drive solo disponibles para Miembros VIP

Compra tu Membresía VIP y apoya a Club-HD!

ATENCIÓN! Tenemos TODO el material de Club-HD disponible por Mega y Google Drive, enlaces 100% activos y online hasta la fecha

Llévate tus cuentas Mega PRO III gratis con tu membresía VIP!
Todos los posts vivos con links de Mega y Google Drive.
Todo el material de Club-HD desbloqueado y sin publicidad.

Click Aquí para más información.


Para ver este contenido oculto, debes dar click en una de las siguientes reacciones : Like Like, Love Love, Haha Haha, Wow Wow, Sad Sad, Angry Angry

Para ver este contenido oculto, debes dar click en una de las siguientes reacciones : Like Like, Love Love, Haha Haha, Wow Wow, Sad Sad, Angry Angry
 
Última edición por un moderador:

josepr_841

New member
Registro
27 Ago 2012
Mensajes
1.284
Ubicación
Cordoba
Gracias!!!! completando de a poco las movies de Vanclo.

Esta es la de la clasica escena donde Vanclo le infla los globos a Rosanna Arquette, no?

Gracias gente!
 

Usuarios Que Están Viendo Este Tema (Total: 1, Miembros: 0, Invitados: 1)

Quién Leyó Este Tema (Total Miembros: 3)

Arriba