Oblivion (2013) 1080p BDRip Dual Latino-Inglés [Subt. Esp] (Ciencia ficción)

Maestro Revolver

Administrador
Registro
9 Ago 2012
Mensajes
3.157
Reacciones (ptje)
54.932


Oblivion-1080p.jpg




FichaTecnica.jpg


TÍTULO ORIGINAL: Oblivion
AÑO: 2013
DURACIÓN: 126 min.
PAÍS: USA
DIRECTOR: Joseph Kosinski
GUIÓN: Joseph Kosinski, Michael Arndt, Karl Gajdusek (Cómic: Joseph Kosinski, Arvid Nelson)
REPARTO: Tom Cruise, Olga Kurylenko, Andrea Riseborough, Morgan Freeman, Nikolaj Coster-Waldau, Zoe Bell, Melissa Leo, Lindsay Clift, Jaylen Moore, Julie Hardin, Paul Gunawan, Jay Oliver, Jason Stanly
PRODUCTORA: Universal Pictures / Chernin Enterntainment
GÉNERO: Ciencia ficción | Aventura espacial. Futuro postapocalíptico. Cómic
imdb-logo.png
: http://www.imdb.com/title/tt1483013/




Sinopsis.jpg


Año 2073. Hace más de 60 años la Tierra fue atacada; se ganó la guerra, pero la mitad del planeta quedó destruido, y todos los seres humanos fueron evacuados. Jack Harper (Tom Cruise), un antiguo marine, es uno de los últimos hombres que la habitan. Es un ingeniero de Drones que participa en una operación para extraer los recursos vitales del planeta. Su misión consiste en patrullar diariamente los cielos. Un día, rescata a una desconocida de una nave espacial y, entonces, se ve obligado a replantearse sus convicciones más profundas.




Trailer.jpg






Capturas.jpg


1.jpg


2.jpg


3.jpg


4.jpg


5.jpg


6.jpg


La pelicula NO tiene ninguna marca... solo colocamos el nombre de esta web en las capturas




MediaInfo.jpg


Código:
General
Format                                   : Matroska
Format version                           : Version 2
File size                                : 10.5 GiB
Duration                                 : 2h 4mn
Overall bit rate                         : 12.1 Mbps
Movie name                               : www.club-hd.com
Encoded date                             : UTC 2013-07-24 20:23:12
Writing application                      : mkvmerge v5.7.0 ('The Whirlwind') built on Jul  8 2012 20:08:51
Writing library                          : libebml v1.2.3 + libmatroska v1.3.0

Video
ID                                       : 1
Format                                   : AVC
Format/Info                              : Advanced Video Codec
Format profile                           : [email protected]
Format settings, CABAC                   : Yes
Format settings, ReFrames                : 5 frames
Codec ID                                 : V_MPEG4/ISO/AVC
Duration                                 : 2h 4mn
Bit rate                                 : 8 527 Kbps
Width                                    : 1 920 pixels
Height                                   : 808 pixels
Display aspect ratio                     : 2.40:1
Frame rate mode                          : Constant
Frame rate                               : 23.976 fps
Color space                              : YUV
Chroma subsampling                       : 4:2:0
Bit depth                                : 8 bits
Scan type                                : Progressive
Bits/(Pixel*Frame)                       : 0.229
Stream size                              : 7.22 GiB (69%)
Title                                    : www.club-hd.com
Writing library                          : x264 core 133 r2334 a3ac64b
Language                                 : English
Default                                  : Yes
Forced                                   : No

Audio #1
ID                                       : 2
Format                                   : AC-3
Format/Info                              : Audio Coding 3
Mode extension                           : CM (complete main)
Format settings, Endianness              : Big
Codec ID                                 : A_AC3
Duration                                 : 2h 4mn
Bit rate mode                            : Constant
Bit rate                                 : 640 Kbps
Channel(s)                               : 6 channels
Channel positions                        : Front: L C R, Side: L R, LFE
Sampling rate                            : 48.0 KHz
Bit depth                                : 16 bits
Compression mode                         : Lossy
Stream size                              : 571 MiB (5%)
Title                                    : www.club-hd.com  >>  Latino AC3 5.1
Language                                 : Spanish
Default                                  : Yes
Forced                                   : No

Audio #2
ID                                       : 3
Format                                   : DTS
Format/Info                              : Digital Theater Systems
Mode                                     : 16
Format settings, Endianness              : Big
Codec ID                                 : A_DTS
Duration                                 : 2h 4mn
Bit rate mode                            : Constant
Bit rate                                 : 768 Kbps
Channel(s)                               : 6 channels
Channel positions                        : Front: L C R, Side: L R, LFE
Sampling rate                            : 48.0 KHz
Bit depth                                : 24 bits
Compression mode                         : Lossy
Stream size                              : 685 MiB (6%)
Title                                    : www.club-hd.com  >>  Latino DTS 5.1
Language                                 : Spanish
Default                                  : No
Forced                                   : No

Audio #3
ID                                       : 4
Format                                   : AC-3
Format/Info                              : Audio Coding 3
Mode extension                           : CM (complete main)
Format settings, Endianness              : Big
Codec ID                                 : A_AC3
Duration                                 : 2h 4mn
Bit rate mode                            : Constant
Bit rate                                 : 640 Kbps
Channel(s)                               : 6 channels
Channel positions                        : Front: L C R, Side: L R, LFE
Sampling rate                            : 48.0 KHz
Bit depth                                : 16 bits
Compression mode                         : Lossy
Stream size                              : 571 MiB (5%)
Title                                    : www.club-hd.com  >>  Inglés AC3 5.1
Language                                 : English
Default                                  : No
Forced                                   : No

Audio #4
ID                                       : 5
Format                                   : DTS
Format/Info                              : Digital Theater Systems
Mode                                     : 16
Format settings, Endianness              : Big
Codec ID                                 : A_DTS
Duration                                 : 2h 4mn
Bit rate mode                            : Constant
Bit rate                                 : 1 509 Kbps
Channel(s)                               : 6 channels
Channel positions                        : Front: L C R, Side: L R, LFE
Sampling rate                            : 48.0 KHz
Bit depth                                : 24 bits
Compression mode                         : Lossy
Stream size                              : 1.31 GiB (12%)
Title                                    : www.club-hd.com  >>  Inglés DTS 5.1
Language                                 : English
Default                                  : No
Forced                                   : No

Text
ID                                       : 6
Format                                   : UTF-8
Codec ID                                 : S_TEXT/UTF8
Codec ID/Info                            : UTF-8 Plain Text
Language                                 : Spanish
Default                                  : No
Forced                                   : No

Menu
00:00:00.000                             : en:00:00:00.000
00:04:31.354                             : en:00:04:31.354
00:12:51.813                             : en:00:12:51.813
00:21:25.284                             : en:00:21:25.284
00:27:20.138                             : en:00:27:20.138
00:35:30.337                             : en:00:35:30.337
00:40:06.779                             : en:00:40:06.779
00:46:16.023                             : en:00:46:16.023
00:52:22.181                             : en:00:52:22.181
01:01:59.716                             : en:01:01:59.716
01:07:59.409                             : en:01:07:59.409
01:16:25.831                             : en:01:16:25.831
01:22:08.173                             : en:01:22:08.173
01:25:31.752                             : en:01:25:31.752
01:30:22.542                             : en:01:30:22.542
01:36:30.368                             : en:01:36:30.368
01:40:29.106                             : en:01:40:29.106
01:46:27.423                             : en:01:46:27.423
01:53:05.320                             : en:01:53:05.320
01:58:23.847                             : en:01:58:23.847




Descarga.jpg



MEGA.jpg

Tenemos TODO el material de Club-HD disponible por Mega, enlaces 100% activos y online hasta la fecha

Llévate tus cuentas Mega PRO III gratis con tu membresía VIP!
Todos los posts vivos con links de Mega.
Todo el material de Club-HD desbloqueado y sin publicidad.

Obtén más información sobre nuestras Membresías VIP


UPLOADED_BANNER.png

Para ver este contenido oculto, debes dar click en el botón"Like", o cualquiera de las otras reacciones:

Me Gusta Me Gusta, Me Encanta Me Encanta, Jaja Jaja, Wow Wow, Triste Triste, Molesto Molesto



OPENLOAD.png

Para ver este contenido oculto, debes dar click en el botón"Like", o cualquiera de las otras reacciones:

Me Gusta Me Gusta, Me Encanta Me Encanta, Jaja Jaja, Wow Wow, Triste Triste, Molesto Molesto
 
Última edición por un moderador:
muy agradesido exelente aporte, mil grasias
 
Volver