Ocean's Eleven (2001) m-720p BDRip Dual Latino-Inglés [Subt. Esp] (Thriller. Intriga)

Maestro Revolver

Well-known member
Miembro del Staff
Administrador
Registro
9 Ago 2012
Mensajes
3.567








TÍTULO ORIGINAL: Ocean's Eleven
AÑO: 2001
DURACIÓN: 117 min.
PAÍS: USA
DIRECTOR: Steven Soderbergh
GUIÓN: Ted Griffin (Remake: Harry Brown, Charles Lederer)
REPARTO: George Clooney, Julia Roberts, Matt Damon, Andy García, Brad Pitt, Casey Affleck, Scott Caan, Elliott Gould, Bernie Mac, Carl Reiner, Don Cheadle, Eddie Jemison, Shaobo Qin, Topher Grace, Joshua Jackson, Holly Marie Combs, Shane West, Steven Soderbergh
PRODUCTORA: Warner Bros. Pictures / Village Roadshow Pictures / NPV Entertainment
GÉNERO: Thriller. Intriga | Remake. Juego. Crimen. Robos & Atracos
: http://www.imdb.com/title/tt0240772/






Danny Ocean es un carismático ladrón que, tan sólo 24 horas después de cumplir una larga condena en prisión, ya está planeando su próximo delito. Su objetivo: realizar el mayor atraco de casinos de la historia. Para ello formará un equipo de once hombres, cada uno de ellos el mejor en su campo. Sin embargo surgirá un problema inesperado: el dueño de los locales, Terry Benedic, está saliendo con Tess, su ex-mujer.
























La pelicula NO tiene ninguna marca... solo colocamos el nombre de esta web en las capturas






Código:
General
Format                                   : Matroska
Format version                           : Version 2
File size                                : 2.91 GiB
Duration                                 : 1h 56mn
Overall bit rate                         : 3 573 Kbps
Movie name                               : www.club-hd.com
Encoded date                             : UTC 2013-07-16 04:02:54
Writing application                      : mkvmerge v5.7.0 ('The Whirlwind') built on Jul  8 2012 20:08:51
Writing library                          : libebml v1.2.3 + libmatroska v1.3.0

Video
ID                                       : 1
Format                                   : AVC
Format/Info                              : Advanced Video Codec
Format profile                           : High@L4.1
Format settings, CABAC                   : Yes
Format settings, ReFrames                : 9 frames
Codec ID                                 : V_MPEG4/ISO/AVC
Duration                                 : 1h 56mn
Bit rate                                 : 2 740 Kbps
Width                                    : 1 280 pixels
Height                                   : 534 pixels
Display aspect ratio                     : 2.40:1
Frame rate mode                          : Constant
Frame rate                               : 23.976 fps
Color space                              : YUV
Chroma subsampling                       : 4:2:0
Bit depth                                : 8 bits
Scan type                                : Progressive
Bits/(Pixel*Frame)                       : 0.167
Stream size                              : 2.17 GiB (75%)
Title                                    : www.club-hd.com
Writing library                          : x264 core 129 r2245 bc13772
Language                                 : English
Default                                  : Yes
Forced                                   : No

Audio #1
ID                                       : 2
Format                                   : AC-3
Format/Info                              : Audio Coding 3
Format profile                           : Dolby Digital
Mode extension                           : CM (complete main)
Format settings, Endianness              : Big
Codec ID                                 : A_AC3
Duration                                 : 1h 56mn
Bit rate mode                            : Constant
Bit rate                                 : 192 Kbps
Channel(s)                               : 2 channels
Channel positions                        : Front: L R
Sampling rate                            : 48.0 KHz
Bit depth                                : 16 bits
Compression mode                         : Lossy
Delay relative to video                  : 500ms
Stream size                              : 160 MiB (5%)
Title                                    : www.club-hd.com  >>  Latino
Language                                 : Spanish
Default                                  : Yes
Forced                                   : No

Audio #2
ID                                       : 3
Format                                   : AC-3
Format/Info                              : Audio Coding 3
Mode extension                           : CM (complete main)
Format settings, Endianness              : Big
Codec ID                                 : A_AC3
Duration                                 : 1h 56mn
Bit rate mode                            : Constant
Bit rate                                 : 640 Kbps
Channel(s)                               : 6 channels
Channel positions                        : Front: L C R, Side: L R, LFE
Sampling rate                            : 48.0 KHz
Bit depth                                : 16 bits
Compression mode                         : Lossy
Stream size                              : 534 MiB (18%)
Title                                    : www.club-hd.com  >>  Inglés
Language                                 : English
Default                                  : No
Forced                                   : No

Text
ID                                       : 4
Format                                   : UTF-8
Codec ID                                 : S_TEXT/UTF8
Codec ID/Info                            : UTF-8 Plain Text
Language                                 : Spanish
Default                                  : No
Forced                                   : No

Menu
00:00:00.000                             : en:"What Would You Do if Released?"
00:02:06.960                             : en:Main Titles; Seeing Ramon
00:05:10.310                             : en:Poker School
00:11:16.342                             : en:"What's the Target?"
00:14:27.033                             : en:Lunch With Reuben
00:18:27.440                             : en:The Malloy Twins; Livingston
00:20:27.560                             : en:Basher; Yen
00:23:10.222                             : en:Saul
00:25:57.222                             : en:Linus
00:28:17.029                             : en:Danny Lays Out the Plan
00:33:35.180                             : en:Casino Reconnaissance
00:39:39.544                             : en:Frank Buys the Vans
00:42:34.719                             : en:"Tell Me About Benedict"
00:44:30.001                             : en:Tess
00:48:44.755                             : en:Tess and Danny Catch Up
00:54:00.904                             : en:Xanadu Implosion
00:56:36.226                             : en:They Need a Pinch
00:58:18.495                             : en:Stealing the Pinch
01:01:52.709                             : en:Danny's Out
01:04:02.505                             : en:Rusty Advises Linus
01:05:27.257                             : en:Fight Night
01:08:31.274                             : en:The Man From the NGC
01:13:20.229                             : en:Whitejack
01:16:23.579                             : en:On the Inside
01:19:30.099                             : en:Somebody Call a Doctor
01:22:34.616                             : en:"We're Set;" Lights Out
01:25:11.606                             : en:In the Vault
01:29:34.035                             : en:Calling Benedict
01:33:22.597                             : en:Rusty States the Terms
01:35:27.889                             : en:SWAT Team Arrives
01:39:16.117                             : en:Benedict Figures It Out
01:41:32.086                             : en:Benedict Grills Danny
01:44:10.244                             : en:"Someone's Always Watching"
01:49:12.546                             : en:Liar and Thief
01:51:33.854                             : en:End Titles








Enlaces de Mega y Google Drive solo disponibles para Miembros VIP

Compra tu Membresía VIP y apoya a Club-HD!

ATENCIÓN! Tenemos TODO el material de Club-HD disponible por Mega y Google Drive, enlaces 100% activos y online hasta la fecha

Llévate tus cuentas Mega PRO III gratis con tu membresía VIP!
Todos los posts vivos con links de Mega y Google Drive.
Todo el material de Club-HD desbloqueado y sin publicidad.

Click Aquí para más información.



Para ver este contenido oculto, debes dar click en una de las siguientes reacciones : Like Like, Love Love, Haha Haha, Wow Wow, Sad Sad, Angry Angry
 
Última edición por un moderador:

Usuarios Que Están Viendo Este Tema (Total: 1, Miembros: 0, Invitados: 1)

Quién Leyó Este Tema (Total Miembros: 4)

Arriba