Ocean's Thirteen (2007) m-720p BDRip Dual Latino-Inglés [Subt. Esp] (Thriller. Intriga)

Maestro Revolver

Well-known member
Miembro del Staff
Administrador
Registro
9 Ago 2012
Mensajes
3.567








TÍTULO ORIGINAL: Ocean's 13 (Ocean's Thirteen)
AÑO: 2007
DURACIÓN: 115 min.
PAÍS: USA
DIRECTOR: Steven Soderbergh
GUIÓN: Brian Koppelman, David Levien (Personajes: George Clayton Johnson, Jack Golden Russell)
REPARTO: George Clooney, Brad Pitt, Matt Damon, Al Pacino, Ellen Barkin, Andy García, Bernie Mac, Casey Affleck, Scott Caan, Elliott Gould, Shaobo Qin, Don Cheadle, Eddie Jemison, Scott L. Schwartz, Carl Reiner, Vincent Cassel, Eddie Izzard, David Paymer, Julian Sands, Michael Harney, James Martin Kelly, James DuMont, Noureen DeWulf
PRODUCTORA: Warner Bros. Pictures / Village Roadshow Pictures / Jerry Weintraub Productions / Section Eight
GÉNERO: Thriller. Intriga | Robos & Atracos. Secuela
: http://www.imdb.com/title/tt0496806/






Danny Ocean (George Clooney) y su banda preparan un ambicioso y arriesgado plan para robar un casino. Su único objetivo, en este caso, es defender a uno de los suyos, que ha sido engañado por Willy Bank (Al Pacino), el despiadado dueño del casino.
























La pelicula NO tiene ninguna marca... solo colocamos el nombre de esta web en las capturas






Código:
General
Format                                   : Matroska
Format version                           : Version 2
File size                                : 3.23 GiB
Duration                                 : 2h 2mn
Overall bit rate                         : 3 784 Kbps
Movie name                               : www.club-hd.com
Encoded date                             : UTC 2013-07-16 04:42:32
Writing application                      : mkvmerge v5.7.0 ('The Whirlwind') built on Jul  8 2012 20:08:51
Writing library                          : libebml v1.2.3 + libmatroska v1.3.0

Video
ID                                       : 1
Format                                   : AVC
Format/Info                              : Advanced Video Codec
Format profile                           : High@L4.1
Format settings, CABAC                   : Yes
Format settings, ReFrames                : 9 frames
Codec ID                                 : V_MPEG4/ISO/AVC
Duration                                 : 2h 2mn
Bit rate                                 : 2 760 Kbps
Width                                    : 1 280 pixels
Height                                   : 534 pixels
Display aspect ratio                     : 2.40:1
Frame rate mode                          : Constant
Frame rate                               : 23.976 fps
Color space                              : YUV
Chroma subsampling                       : 4:2:0
Bit depth                                : 8 bits
Scan type                                : Progressive
Bits/(Pixel*Frame)                       : 0.168
Stream size                              : 2.29 GiB (71%)
Title                                    : www.club-hd.com
Writing library                          : x264 core 129 r2245 bc13772
Language                                 : English
Default                                  : Yes
Forced                                   : No

Audio #1
ID                                       : 2
Format                                   : AC-3
Format/Info                              : Audio Coding 3
Mode extension                           : CM (complete main)
Format settings, Endianness              : Big
Codec ID                                 : A_AC3
Duration                                 : 2h 2mn
Bit rate mode                            : Constant
Bit rate                                 : 384 Kbps
Channel(s)                               : 6 channels
Channel positions                        : Front: L C R, Side: L R, LFE
Sampling rate                            : 48.0 KHz
Bit depth                                : 16 bits
Compression mode                         : Lossy
Delay relative to video                  : 1s 0ms
Stream size                              : 336 MiB (10%)
Title                                    : www.club-hd.com  >>  Latino
Language                                 : Spanish
Default                                  : Yes
Forced                                   : No

Audio #2
ID                                       : 3
Format                                   : AC-3
Format/Info                              : Audio Coding 3
Mode extension                           : CM (complete main)
Format settings, Endianness              : Big
Codec ID                                 : A_AC3
Duration                                 : 2h 2mn
Bit rate mode                            : Constant
Bit rate                                 : 640 Kbps
Channel(s)                               : 6 channels
Channel positions                        : Front: L C R, Side: L R, LFE
Sampling rate                            : 48.0 KHz
Bit depth                                : 16 bits
Compression mode                         : Lossy
Stream size                              : 559 MiB (17%)
Title                                    : www.club-hd.com  >>  Inglés
Language                                 : English
Default                                  : No
Forced                                   : No

Text
ID                                       : 4
Format                                   : UTF-8
Codec ID                                 : S_TEXT/UTF8
Codec ID/Info                            : UTF-8 Plain Text
Language                                 : Spanish
Default                                  : No
Forced                                   : No

Menu
00:00:00.000                             : en:Anything for Reuben
00:04:42.282                             : en:Willy Amends the Deal
00:07:38.458                             : en:The Guys Offer Willy "A Billy Martin"
00:10:06.105                             : en:Showing Nagel the Big Picture
00:13:11.958                             : en:The Big Picture, Continued
00:17:26.879                             : en:Fixing Blackjack, Slots, Roulette
00:21:30.122                             : en:The Greco Player Tracker
00:24:26.465                             : en:The Exit Strategy
00:27:42.828                             : en:Rusty Does an "Irwin Allen"
00:30:36.501                             : en:Prepping Room 1706; "Caravan"
00:32:38.290                             : en:Kensington Chubb and the V.I.P. Check-in
00:39:01.839                             : en:Livingston Explains Blackjack
00:42:08.860                             : en:Complications
00:46:22.613                             : en:Terry
00:49:41.645                             : en:Mr. Weng and Lenny Pepperidge
00:51:43.267                             : en:Yen Negotiates the Elevators
00:53:30.040                             : en:Rusty and Danny Walk and Talk
00:58:10.821                             : en:Oprah
01:00:49.646                             : en:Finding a Way to the Diamond Room
01:07:24.207                             : en:Terry and Willy: 'Nuff Said
01:10:53.749                             : en:Willy Makes Preparations
01:13:31.240                             : en:The Grand Opening
01:18:04.513                             : en:The Gilroy
01:21:22.377                             : en:"The FBI Is in the House"
01:26:11.166                             : en:Blowing the Slots
01:28:35.477                             : en:The Cartwheel
01:32:34.716                             : en:Eugene's Trap Door
01:34:43.344                             : en:First Tremor; "You Felt It, Too?"
01:37:17.165                             : en:Winning Montage
01:40:58.886                             : en:The Exit Strategy, Cont'd.
01:43:09.683                             : en:Aftermath
01:50:20.113                             : en:"This Town"
01:52:35.415                             : en:Camp to Belong
01:56:37.490                             : en:End Titles








Enlaces de Mega y Google Drive solo disponibles para Miembros VIP

Compra tu Membresía VIP y apoya a Club-HD!

ATENCIÓN! Tenemos TODO el material de Club-HD disponible por Mega y Google Drive, enlaces 100% activos y online hasta la fecha

Llévate tus cuentas Mega PRO III gratis con tu membresía VIP!
Todos los posts vivos con links de Mega y Google Drive.
Todo el material de Club-HD desbloqueado y sin publicidad.

Click Aquí para más información.



Para ver este contenido oculto, debes dar click en una de las siguientes reacciones : Like Like, Love Love, Haha Haha, Wow Wow, Sad Sad, Angry Angry
 
Última edición por un moderador:

Usuarios Que Están Viendo Este Tema (Total: 1, Miembros: 0, Invitados: 1)

Quién Leyó Este Tema (Total Miembros: 4)

Arriba