Oldboy (2003) m-720p BDRip Audio Coreano [Subt. Esp] (Thriller. Intriga)

Maestro Revolver

Well-known member
Miembro del Staff
Administrador
Registro
9 Ago 2012
Mensajes
3.567








TÍTULO ORIGINAL: Oldeuboi - Oldboy
AÑO: 2003
DURACIÓN: 120 min.
PAÍS: Corea del Sur
DIRECTOR: Park Chan-wook
GUIÓN: Park Chan-wook, Hwang Jo-yoon, Im Joon-hyung (Cómic: Nobuaki Minegishi)
REPARTO: Choi Min-sik, Yu Ji-tae, Kang Hye-jeong, Ji Dae-han, Oh Dal-su, Kim Byeong-ok, Lee Seung-Shin, Yun Jin-seo
PRODUCTORA: Show East Co. Ltd
GÉNERO: Thriller. Intriga | Manga. Película de culto
: http://www.imdb.com/title/tt0364569/






Min-sik Choi es un hombre de negocios coreano que un día es secuestrado y confinado durante años en una celda en la que sólo hay una televisión. Y, sin embargo, ignora por qué razón está allí... Es la segunda parte de la "trilogía de la venganza" de Chan-wook Park.
























La pelicula NO tiene ninguna marca... solo colocamos el nombre de esta web en las capturas






Código:
General
Format                                   : Matroska
Format version                           : Version 2
File size                                : 2.70 GiB
Duration                                 : 1h 59mn
Overall bit rate                         : 3 227 Kbps
Movie name                               : www.club-hd.com
Encoded date                             : UTC 2013-05-18 23:04:02
Writing application                      : mkvmerge v5.7.0 ('The Whirlwind') built on Jul  8 2012 20:08:51
Writing library                          : libebml v1.2.3 + libmatroska v1.3.0

Video
ID                                       : 1
Format                                   : AVC
Format/Info                              : Advanced Video Codec
Format profile                           : High@L4.1
Format settings, CABAC                   : Yes
Format settings, ReFrames                : 9 frames
Codec ID                                 : V_MPEG4/ISO/AVC
Duration                                 : 1h 59mn
Bit rate                                 : 2 585 Kbps
Width                                    : 1 280 pixels
Height                                   : 558 pixels
Display aspect ratio                     : 2.25:1
Frame rate mode                          : Constant
Frame rate                               : 23.976 fps
Color space                              : YUV
Chroma subsampling                       : 4:2:0
Bit depth                                : 8 bits
Scan type                                : Progressive
Bits/(Pixel*Frame)                       : 0.151
Stream size                              : 2.11 GiB (78%)
Writing library                          : x264 core 124 r2197 69a0443
Language                                 : Korean
Default                                  : Yes
Forced                                   : No

Audio
ID                                       : 2
Format                                   : AC-3
Format/Info                              : Audio Coding 3
Mode extension                           : CM (complete main)
Format settings, Endianness              : Big
Codec ID                                 : A_AC3
Duration                                 : 1h 59mn
Bit rate mode                            : Constant
Bit rate                                 : 640 Kbps
Channel(s)                               : 6 channels
Channel positions                        : Front: L C R, Side: L R, LFE
Sampling rate                            : 48.0 KHz
Bit depth                                : 16 bits
Compression mode                         : Lossy
Stream size                              : 549 MiB (20%)
Language                                 : Korean
Default                                  : Yes
Forced                                   : No

Text
ID                                       : 3
Format                                   : UTF-8
Codec ID                                 : S_TEXT/UTF8
Codec ID/Info                            : UTF-8 Plain Text
Language                                 : Spanish
Default                                  : Yes
Forced                                   : No

Menu
00:00:00.000                             : en:Kidnapped
00:05:58.941                             : en:Private Cell
00:12:06.142                             : en:Soon I'll Be Free
00:17:36.847                             : en:In a Different Place
00:28:40.802                             : en:Mido
00:33:57.410                             : en:The Right Taste
00:42:37.054                             : en:One Versus Many
00:47:36.603                             : en:Evergreen
00:52:45.537                             : en:Only 5 Days
01:00:59.781                             : en:The Sign
01:12:36.685                             : en:Soo-Ah
01:19:26.803                             : en:Look Through the Window
01:29:10.303                             : en:Bitter Truth
01:40:00.452                             : en:Forgive Me
01:47:06.378                             : en:Falling
01:57:36.215                             : en:Closing Credits








Enlaces de Mega y Google Drive solo disponibles para Miembros VIP

Compra tu Membresía VIP y apoya a Club-HD!

ATENCIÓN! Tenemos TODO el material de Club-HD disponible por Mega y Google Drive, enlaces 100% activos y online hasta la fecha

Llévate tus cuentas Mega PRO III gratis con tu membresía VIP!
Todos los posts vivos con links de Mega y Google Drive.
Todo el material de Club-HD desbloqueado y sin publicidad.

Click Aquí para más información.


Enlaces de Mega y Google Drive solo disponibles para Miembros VIP

Compra tu Membresía VIP y apoya a Club-HD!

ATENCIÓN! Tenemos TODO el material de Club-HD disponible por Mega y Google Drive, enlaces 100% activos y online hasta la fecha

Llévate tus cuentas Mega PRO III gratis con tu membresía VIP!
Todos los posts vivos con links de Mega y Google Drive.
Todo el material de Club-HD desbloqueado y sin publicidad.

Click Aquí para más información.


Para ver este contenido oculto, debes dar click en una de las siguientes reacciones : Like Like, Love Love, Haha Haha, Wow Wow, Sad Sad, Angry Angry


Para ver este contenido oculto, debes dar click en una de las siguientes reacciones : Like Like, Love Love, Haha Haha, Wow Wow, Sad Sad, Angry Angry
 
Última edición por un moderador:

Doctor Jason

New member
Súper Moderador
Registro
1 Sep 2012
Mensajes
2.398
Ubicación
Buenos Aires
NNNNOOOOOOOOOOOO!!!!!!!! :OHHH: Esta es una de las pocas películas que no pude volver a ver de tan jodidas que son, como lo son tambien: "The Human Centipede 1 y 2", "Martyrs" y "A Serbian Film" (la más jodida que vi en mi vida).shok

PD: En Octubre de este año se viene la versión yanqui de OLDBOY de la mano del director Spike Lee y con las actuaciónes de Josh Brolin, Elizabeth Olsen, Sharlto Copley y Samuel L. Jackson.
 

Usuarios Que Están Viendo Este Tema (Total: 2, Miembros: 1, Invitados: 1)

Quién Leyó Este Tema (Total Miembros: 4)

Arriba