Olympus Has Fallen (2013) 1080p BDRip Dual Latino-Inglés [Subt. Esp] (Thriller. Acción)

Maestro Revolver

Administrador
9 Ago 2012
3.157
54.685


Olympus Has Fallen (2013) 1080p BDRip Dual Latino-Inglés [Subt. Esp] (Thriller. Acción)




Olympus Has Fallen (2013) 1080p BDRip Dual Latino-Inglés [Subt. Esp] (Thriller. Acción)


TÍTULO ORIGINAL: Olympus Has Fallen
AÑO: 2013
DURACIÓN: 119 min.
PAÍS: USA
DIRECTOR: Antoine Fuqua
GUIÓN: Creighton Rothenberger, Katrin Benedikt
REPARTO: Gerard Butler, Aaron Eckhart, Morgan Freeman, Dylan McDermott, Ashley Judd, Radha Mitchell, Melissa Leo, Cole Hauser, Angela Bassett, Han Soto, Robert Forster, Rick Yune, Arden Cho, Sean O'Bryan, Tory Kittles, Jason Yee, Amber Dawn Landrum
PRODUCTORA: Millennium Films / Nu Image / Millennium Films / Sony Pictures Entertainment (SPE)
GÉNERO: Thriller. Acción | Terrorismo
Olympus Has Fallen (2013) 1080p BDRip Dual Latino-Inglés [Subt. Esp] (Thriller. Acción)
: http://www.imdb.com/title/tt2302755/




Olympus Has Fallen (2013) 1080p BDRip Dual Latino-Inglés [Subt. Esp] (Thriller. Acción)


Tras un accidente en el que sólo consigue salvar la vida del Presidente Asher (Aaron Eckhart), el agente del Servicio Secreto Mike Banning (Gerard Butler) decide dejar su puesto para trabajar en el Departamento del Tesoro. Pero, cuando un comando norcoreano liderado por Kang (Rick Yune) ataca la Casa Blanca y toma como rehenes al Presidente y a su equipo, Banning se verá obligado a entrar de nuevo en acción.




Olympus Has Fallen (2013) 1080p BDRip Dual Latino-Inglés [Subt. Esp] (Thriller. Acción)






Olympus Has Fallen (2013) 1080p BDRip Dual Latino-Inglés [Subt. Esp] (Thriller. Acción)


Olympus Has Fallen (2013) 1080p BDRip Dual Latino-Inglés [Subt. Esp] (Thriller. Acción)


Olympus Has Fallen (2013) 1080p BDRip Dual Latino-Inglés [Subt. Esp] (Thriller. Acción)


Olympus Has Fallen (2013) 1080p BDRip Dual Latino-Inglés [Subt. Esp] (Thriller. Acción)


Olympus Has Fallen (2013) 1080p BDRip Dual Latino-Inglés [Subt. Esp] (Thriller. Acción)


Olympus Has Fallen (2013) 1080p BDRip Dual Latino-Inglés [Subt. Esp] (Thriller. Acción)


Olympus Has Fallen (2013) 1080p BDRip Dual Latino-Inglés [Subt. Esp] (Thriller. Acción)


La pelicula NO tiene ninguna marca... solo colocamos el nombre de esta web en las capturas




Olympus Has Fallen (2013) 1080p BDRip Dual Latino-Inglés [Subt. Esp] (Thriller. Acción)


Código:
General
Format                                   : Matroska
Format version                           : Version 2
File size                                : 8.63 GiB
Duration                                 : 1h 59mn
Overall bit rate                         : 10.4 Mbps
Movie name                               : www.club-hd.com
Encoded date                             : UTC 2013-08-09 22:20:27
Writing application                      : mkvmerge v5.7.0 ('The Whirlwind') built on Jul  8 2012 20:08:51
Writing library                          : libebml v1.2.3 + libmatroska v1.3.0

Video
ID                                       : 1
Format                                   : AVC
Format/Info                              : Advanced Video Codec
Format profile                           : [email protected]
Format settings, CABAC                   : Yes
Format settings, ReFrames                : 5 frames
Codec ID                                 : V_MPEG4/ISO/AVC
Duration                                 : 1h 59mn
Bit rate                                 : 8 033 Kbps
Width                                    : 1 920 pixels
Height                                   : 808 pixels
Display aspect ratio                     : 2.40:1
Frame rate mode                          : Constant
Frame rate                               : 24.000 fps
Color space                              : YUV
Chroma subsampling                       : 4:2:0
Bit depth                                : 8 bits
Scan type                                : Progressive
Bits/(Pixel*Frame)                       : 0.216
Stream size                              : 6.51 GiB (75%)
Title                                    : www.club-hd.com
Writing library                          : x264 core 133 r2334 a3ac64b
Language                                 : English
Default                                  : Yes
Forced                                   : No

Audio #1
ID                                       : 2
Format                                   : AC-3
Format/Info                              : Audio Coding 3
Mode extension                           : CM (complete main)
Format settings, Endianness              : Big
Codec ID                                 : A_AC3
Duration                                 : 1h 59mn
Bit rate mode                            : Constant
Bit rate                                 : 192 Kbps
Channel(s)                               : 2 channels
Channel positions                        : Front: L R
Sampling rate                            : 48.0 KHz
Bit depth                                : 16 bits
Compression mode                         : Lossy
Delay relative to video                  : 200ms
Stream size                              : 164 MiB (2%)
Title                                    : www.club-hd.com  >>  Latino AC3
Language                                 : Spanish
Default                                  : Yes
Forced                                   : No

Audio #2
ID                                       : 3
Format                                   : AC-3
Format/Info                              : Audio Coding 3
Mode extension                           : CM (complete main)
Format settings, Endianness              : Big
Codec ID                                 : A_AC3
Duration                                 : 1h 59mn
Bit rate mode                            : Constant
Bit rate                                 : 640 Kbps
Channel(s)                               : 6 channels
Channel positions                        : Front: L C R, Side: L R, LFE
Sampling rate                            : 48.0 KHz
Bit depth                                : 16 bits
Compression mode                         : Lossy
Stream size                              : 545 MiB (6%)
Title                                    : www.club-hd.com  >>  Inglés AC3
Language                                 : English
Default                                  : No
Forced                                   : No

Audio #3
ID                                       : 4
Format                                   : DTS
Format/Info                              : Digital Theater Systems
Mode                                     : 16
Format settings, Endianness              : Big
Codec ID                                 : A_DTS
Duration                                 : 1h 59mn
Bit rate mode                            : Constant
Bit rate                                 : 1 509 Kbps
Channel(s)                               : 6 channels
Channel positions                        : Front: L C R, Side: L R, LFE
Sampling rate                            : 48.0 KHz
Bit depth                                : 24 bits
Compression mode                         : Lossy
Stream size                              : 1.26 GiB (15%)
Title                                    : www.club-hd.com  >>  Inglés DTS
Language                                 : English
Default                                  : No
Forced                                   : No

Text
ID                                       : 5
Format                                   : UTF-8
Codec ID                                 : S_TEXT/UTF8
Codec ID/Info                            : UTF-8 Plain Text
Language                                 : Spanish
Default                                  : No
Forced                                   : No

Menu
00:00:00.000                             : en:00:00:00.000
00:09:19.542                             : en:00:09:19.542
00:17:49.750                             : en:00:17:49.750
00:27:52.417                             : en:00:27:52.417
00:38:11.708                             : en:00:38:11.708
00:46:51.833                             : en:00:46:51.833
00:57:37.000                             : en:00:57:37.000
01:07:31.708                             : en:01:07:31.708
01:19:48.875                             : en:01:19:48.875
01:28:46.208                             : en:01:28:46.208
01:38:14.125                             : en:01:38:14.125
01:50:14.625                             : en:01:50:14.625




Olympus Has Fallen (2013) 1080p BDRip Dual Latino-Inglés [Subt. Esp] (Thriller. Acción)



Olympus Has Fallen (2013) 1080p BDRip Dual Latino-Inglés [Subt. Esp] (Thriller. Acción)

Enlaces de Mega solo disponibles para Miembros VIP

Compra tu Membresía VIP y apoya a Club-HD!

ATENCIÓN! Tenemos TODO el material de Club-HD disponible por Mega, enlaces 100% activos y online hasta la fecha

Llévate tus cuentas Mega PRO III gratis con tu membresía VIP!
Todos los posts vivos con links de Mega.
Todo el material de Club-HD desbloqueado y sin publicidad.

Click Aquí para más información.

Olympus Has Fallen (2013) 1080p BDRip Dual Latino-Inglés [Subt. Esp] (Thriller. Acción)


Enlaces de Mega solo disponibles para Miembros VIP

Compra tu Membresía VIP y apoya a Club-HD!

ATENCIÓN! Tenemos TODO el material de Club-HD disponible por Mega, enlaces 100% activos y online hasta la fecha

Llévate tus cuentas Mega PRO III gratis con tu membresía VIP!
Todos los posts vivos con links de Mega.
Todo el material de Club-HD desbloqueado y sin publicidad.

Click Aquí para más información.

Olympus Has Fallen (2013) 1080p BDRip Dual Latino-Inglés [Subt. Esp] (Thriller. Acción)

Para ver este contenido oculto, debes dar click en el botón "Like", o cualquiera de las otras reacciones:

Me Gusta Me Gusta, Me Encanta Me Encanta, Jaja Jaja, Wow Wow, Triste Triste, Molesto Molesto

Olympus Has Fallen (2013) 1080p BDRip Dual Latino-Inglés [Subt. Esp] (Thriller. Acción)


Para ver este contenido oculto, debes dar click en el botón "Like", o cualquiera de las otras reacciones:

Me Gusta Me Gusta, Me Encanta Me Encanta, Jaja Jaja, Wow Wow, Triste Triste, Molesto Molesto

 
Última edición por un moderador:
Arriba