One Flew Over the Cuckoo's Nest (1975) 720p BDRip Dual Latino-Inglés [Subt. Esp] (Drama)

Maestro Revolver

Well-known member
Miembro del Staff
Administrador
Registro
9 Ago 2012
Mensajes
3.567








TÍTULO ORIGINAL: One Flew Over the Cuckoo's Nest
AÑO: 1975
DURACIÓN: 133 min.
PAÍS: USA
DIRECTOR: Milos Forman
GUIÓN: Bo Goldman, Lawrence Hauben (Novela: Ken Kesey)
REPARTO: Jack Nicholson, Louise Fletcher, William Redfield, Will Sampson, Brad Dourif, Christopher Lloyd, Danny DeVito, Scatman Crothers, Dean R. Brooks, Delos V. Smith Jr., Josip Elic, Kay Lee, Louisa Moritz, Mews Small, Mimi Sarkisian, Mwako Cumbuka, Nathan George, Peter Brocco, Sydney Lassick, Vincent Schiavelli, William Duell
PRODUCTORA: United Artists presents a Fantasy Film
GÉNERO: Drama | Enfermedad. Película de culto. Discapacidad
: http://www.imdb.com/title/tt0073486/


Premios: 1975: 5 Oscars: Película, director, actor (Nicholson), actriz (Fletcher), guión adaptado
1975: 5 Globos de Oro: Película, director, actor (Nicholson), actriz (Fletcher), guión
1975: Premios BAFTA: Mejor película
1975: Círculo de críticos de Nueva York: Mejor actor (Nicholson)
1975: Asociación de Críticos de Los Angeles: Mejor Película
1975: Premios David di Donatello: Mejor director y actor extranjero (Jack Nicholson)
1976: Premios César: Nominada a Mejor Película Extranjera







Randle McMurphy (Jack Nicholson), un violador de espíritu libre, que vive contracorriente, es recluido en un hospital psiquiátrico. La inflexible disciplina del centro acentúa su contagiosa tendencia al desorden, que acabará desencadenando una guerra entre los pacientes y el personal de la clínica con la fría y severa enfermera Ratched (Louise Fletcher) a la cabeza. La suerte de cada paciente del pabellón está en juego.
























La pelicula NO tiene ninguna marca... solo colocamos el nombre de esta web en las capturas






Código:
General
Format                                   : Matroska
Format version                           : Version 2
File size                                : 3.67 GiB
Duration                                 : 2h 13mn
Overall bit rate                         : 3 933 Kbps
Movie name                               : www.club-hd.com
Encoded date                             : UTC 2013-04-28 22:19:23
Writing application                      : mkvmerge v5.8.0 ('No Sleep / Pillow') built on Sep  2 2012 15:37:04
Writing library                          : libebml v1.2.3 + libmatroska v1.3.0

Video
ID                                       : 1
Format                                   : AVC
Format/Info                              : Advanced Video Codec
Format profile                           : High@L4.1
Format settings, CABAC                   : Yes
Format settings, ReFrames                : 6 frames
Codec ID                                 : V_MPEG4/ISO/AVC
Duration                                 : 2h 13mn
Bit rate                                 : 3 100 Kbps
Width                                    : 1 280 pixels
Height                                   : 720 pixels
Display aspect ratio                     : 16:9
Frame rate mode                          : Constant
Frame rate                               : 23.976 fps
Color space                              : YUV
Chroma subsampling                       : 4:2:0
Bit depth                                : 8 bits
Scan type                                : Progressive
Bits/(Pixel*Frame)                       : 0.140
Stream size                              : 2.82 GiB (77%)
Title                                    : www.club-hd.com
Writing library                          : x264 core 130 r2273 b3065e6
Language                                 : English
Default                                  : Yes
Forced                                   : No

Audio #1
ID                                       : 2
Format                                   : AC-3
Format/Info                              : Audio Coding 3
Mode extension                           : CM (complete main)
Format settings, Endianness              : Big
Codec ID                                 : A_AC3
Duration                                 : 2h 13mn
Bit rate mode                            : Constant
Bit rate                                 : 192 Kbps
Channel(s)                               : 2 channels
Channel positions                        : Front: L R
Sampling rate                            : 48.0 KHz
Bit depth                                : 16 bits
Compression mode                         : Lossy
Stream size                              : 184 MiB (5%)
Title                                    : Latino
Language                                 : Spanish
Default                                  : Yes
Forced                                   : No

Audio #2
ID                                       : 3
Format                                   : AC-3
Format/Info                              : Audio Coding 3
Mode extension                           : CM (complete main)
Format settings, Endianness              : Big
Codec ID                                 : A_AC3
Duration                                 : 2h 13mn
Bit rate mode                            : Constant
Bit rate                                 : 640 Kbps
Channel(s)                               : 6 channels
Channel positions                        : Front: L C R, Side: L R, LFE
Sampling rate                            : 48.0 KHz
Bit depth                                : 16 bits
Compression mode                         : Lossy
Stream size                              : 612 MiB (16%)
Title                                    : Inglés
Language                                 : English
Default                                  : No
Forced                                   : No

Text
ID                                       : 4
Format                                   : UTF-8
Codec ID                                 : S_TEXT/UTF8
Codec ID/Info                            : UTF-8 Plain Text
Language                                 : Spanish
Default                                  : No
Forced                                   : No

Menu
00:00:00.000                             : en:00:00:00.000
00:04:08.748                             : en:00:04:08.748
00:08:29.175                             : en:00:08:29.175
00:13:54.000                             : en:00:13:54.000
00:21:07.266                             : en:00:21:07.266
00:25:02.334                             : en:00:25:02.334
00:27:24.142                             : en:00:27:24.142
00:31:23.381                             : en:00:31:23.381
00:34:12.050                             : en:00:34:12.050
00:39:15.353                             : en:00:39:15.353
00:47:19.336                             : en:00:47:19.336
00:48:49.426                             : en:00:48:49.426
00:51:25.916                             : en:00:51:25.916
00:54:58.795                             : en:00:54:58.795
01:02:05.722                             : en:01:02:05.722
01:05:27.757                             : en:01:05:27.757
01:06:56.512                             : en:01:06:56.512
01:09:28.998                             : en:01:09:28.998
01:10:46.576                             : en:01:10:46.576
01:19:20.422                             : en:01:19:20.422
01:26:50.372                             : en:01:26:50.372
01:29:34.369                             : en:01:29:34.369
01:36:53.474                             : en:01:36:53.474
01:37:50.531                             : en:01:37:50.531
01:41:24.412                             : en:01:41:24.412
01:44:27.803                             : en:01:44:27.803
01:50:39.633                             : en:01:50:39.633
01:53:16.039                             : en:01:53:16.039
01:59:02.302                             : en:01:59:02.302
02:02:11.324                             : en:02:02:11.324
02:04:12.945                             : en:02:04:12.945
02:09:04.570                             : en:02:09:04.570
02:11:25.878                             : en:02:11:25.878








Enlaces de Mega y Google Drive solo disponibles para Miembros VIP

Compra tu Membresía VIP y apoya a Club-HD!

ATENCIÓN! Tenemos TODO el material de Club-HD disponible por Mega y Google Drive, enlaces 100% activos y online hasta la fecha

Llévate tus cuentas Mega PRO III gratis con tu membresía VIP!
Todos los posts vivos con links de Mega y Google Drive.
Todo el material de Club-HD desbloqueado y sin publicidad.

Click Aquí para más información.



Para ver este contenido oculto, debes dar click en una de las siguientes reacciones : Like Like, Love Love, Haha Haha, Wow Wow, Sad Sad, Angry Angry

 
Última edición por un moderador:

zacygal

Well-known member
Registro
3 Sep 2012
Mensajes
1.515
Edad
50
sta es muy buena pela, recuerdo haberla visto hace un tiempo. Grax ...
 

krist90

New member
Registro
24 Sep 2012
Mensajes
92
GRANDE MASTER!! Hace muchísimi tiempo esperaba esta película, por favor VEANLA TODOS, muy buena!!!
 

Mate78

Ladron de mi cerebro
Miembro del Staff
Súper Moderador
Miembro VIP
Registro
27 Ago 2012
Mensajes
1.244
Hablando de clasico !!!! gracias BestiaTb_up3 !!!!
 

madarts

Active member
Registro
12 Sep 2012
Mensajes
401
woooooooooooooooooooow

muchas gracias Revolver

acabas de hacer feliz a mi avatar
sobra decir que es una de mis favoritas

gracias y saludos
 

Howl

Well-known member
Miembro VIP
Registro
28 Ago 2012
Mensajes
1.769
pues tiene bastantes premios encima habra que verla, gracias
 

Usuarios Que Están Viendo Este Tema (Total: 1, Miembros: 0, Invitados: 1)

Quién Leyó Este Tema (Total Miembros: 2)

Arriba