Ong Bak (2003) m-720p BDRip Audio Tailandes [Subt. Esp] (Acción | Artes marciales )

Maestro Revolver

Well-known member
Miembro del Staff
Administrador
Registro
9 Ago 2012
Mensajes
3.567
Reputation
1








TÍTULO ORIGINAL: Ong Bak: Muay Thai Warrior
AÑO: 2003
DURACIÓN: 105 min.
PAÍS: Tailandia
DIRECTOR: Prachya Pinkaew
GUIÓN: Suphachai Sithiamphan
REPARTO: Chethetwut Wacharakun, Petchtai Wongkamlao, Pumwaree Yodkamo, Rungrawee Borrijindakul, Sukhaaw Phongwilai, Tony Jaa, Wannakit Siriput
PRODUCTORA: Baa-Ram-Ewe
GÉNERO: Acción | Artes marciales
: http://www.imdb.com/title/tt0368909/






Ong Bak es una estatua legendaria de Buda que se halla en el templo de Nong Para-du, en la Tailandia rural. Los aldeanos creen que los poderes mágicos de Ong Bak les protegen de todo mal. Un despiadado gánster roba la cabeza del buda dejando al pueblo totalmente desprotegido. Sus habitantes buscarán a un guerrero para recuperar el buda y enfrentarse a la banda de gánsters, encontrando a Ting, un huérfano criado en el templo, y alumno de Pra Kru, un amable monje, experto en el ancestral arte del Muay Thai: “Las Nueve Armas Corporales".
























La pelicula NO tiene ninguna marca... solo colocamos el nombre de esta web en las capturas






Código:
General
Format                                   : Matroska
Format version                           : Version 2
File size                                : 2.49 GiB
Duration                                 : 1h 45mn
Overall bit rate                         : 3 392 Kbps
Movie name                               : www.club-hd.com
Encoded date                             : UTC 2013-06-12 01:04:43
Writing application                      : mkvmerge v5.7.0 ('The Whirlwind') built on Jul  8 2012 20:08:51
Writing library                          : libebml v1.2.3 + libmatroska v1.3.0

Video
ID                                       : 1
Format                                   : AVC
Format/Info                              : Advanced Video Codec
Format profile                           : High@L4.1
Format settings, CABAC                   : Yes
Format settings, ReFrames                : 9 frames
Codec ID                                 : V_MPEG4/ISO/AVC
Duration                                 : 1h 45mn
Bit rate                                 : 2 763 Kbps
Width                                    : 1 280 pixels
Height                                   : 694 pixels
Display aspect ratio                     : 1.85:1
Frame rate mode                          : Constant
Frame rate                               : 23.976 fps
Color space                              : YUV
Chroma subsampling                       : 4:2:0
Bit depth                                : 8 bits
Scan type                                : Progressive
Bits/(Pixel*Frame)                       : 0.130
Stream size                              : 1.97 GiB (79%)
Title                                    : www.club-hd.com
Writing library                          : x264 core 129 r2245 bc13772
Language                                 : Thai
Default                                  : Yes
Forced                                   : No

Audio
ID                                       : 2
Format                                   : AC-3
Format/Info                              : Audio Coding 3
Mode extension                           : CM (complete main)
Format settings, Endianness              : Big
Codec ID                                 : A_AC3
Duration                                 : 1h 45mn
Bit rate mode                            : Constant
Bit rate                                 : 640 Kbps
Channel(s)                               : 6 channels
Channel positions                        : Front: L C R, Side: L R, LFE
Sampling rate                            : 48.0 KHz
Bit depth                                : 16 bits
Compression mode                         : Lossy
Stream size                              : 481 MiB (19%)
Title                                    : www.club-hd.com
Language                                 : Thai
Default                                  : Yes
Forced                                   : No

Text
ID                                       : 3
Format                                   : UTF-8
Codec ID                                 : S_TEXT/UTF8
Codec ID/Info                            : UTF-8 Plain Text
Title                                    : www.club-hd.com
Language                                 : Spanish
Default                                  : Yes
Forced                                   : No

Menu
00:00:00.000                             : en:The Contest
00:05:30.705                             : en:Muay Thai
00:10:11.819                             : en:Ong-Bak's Head
00:13:46.075                             : en:Humlae & Muay
00:20:18.467                             : en:Fight Club
00:27:58.093                             : en:Wrong Game
00:33:45.732                             : en:Chase
00:40:45.777                             : en:Ting vs. Big Bear
00:46:52.601                             : en:Ting vs. Yoshiro
00:49:49.570                             : en:Ting vs. Mad Dog
00:56:35.559                             : en:House Call
01:01:00.532                             : en:Tuc-Tucs
01:08:47.790                             : en:The Offer
01:11:37.335                             : en:Hand Bandages
01:16:19.366                             : en:Hot Soles
01:22:20.310                             : en:In the Cave
01:25:45.432                             : en:Humlae's Rescue
01:29:54.639                             : en:Buddha's Revenge
01:36:42.171                             : en:Return
01:40:45.581                             : en:End Titles








Enlaces de Mega y Google Drive solo disponibles para Miembros VIP

Compra tu Membresía VIP y apoya a Club-HD!

ATENCIÓN! Tenemos TODO el material de Club-HD disponible por Mega y Google Drive, enlaces 100% activos y online hasta la fecha

Llévate tus cuentas Mega PRO III gratis con tu membresía VIP!
Todos los posts vivos con links de Mega y Google Drive.
Todo el material de Club-HD desbloqueado y sin publicidad.

Click Aquí para más información.



Enlaces de Mega y Google Drive solo disponibles para Miembros VIP

Compra tu Membresía VIP y apoya a Club-HD!

ATENCIÓN! Tenemos TODO el material de Club-HD disponible por Mega y Google Drive, enlaces 100% activos y online hasta la fecha

Llévate tus cuentas Mega PRO III gratis con tu membresía VIP!
Todos los posts vivos con links de Mega y Google Drive.
Todo el material de Club-HD desbloqueado y sin publicidad.

Click Aquí para más información.



Para ver este contenido oculto, debes dar click en una de las siguientes reacciones : Like Like, Love Love, Haha Haha, Wow Wow, Sad Sad, Angry Angry
 
Última edición por un moderador:

Lug

Well-known member
Registro
24 Oct 2012
Mensajes
1.691
Reputation
0
Edad
63
Desc_g_
Guauuuu, seguimos con las series (de pelis)...
 

Usuarios Que Están Viendo Este Tema (Total: 1, Miembros: 0, Invitados: 1)

Quién Leyó Este Tema (Total Miembros: 2)

Arriba