Ong Bak 3 (2010) m-720p BDRip Audio Tailandes [Subt. Esp] (Acción | Artes marciales )

Maestro Revolver

Well-known member
Miembro del Staff
Administrador
Registro
9 Ago 2012
Mensajes
3.567








TÍTULO ORIGINAL: Ong Bak 3
AÑO: 2010
DURACIÓN: 99 min.
PAÍS: Tailandia
DIRECTOR: Tony Jaa, Panna Rittikrai
GUIÓN: Tony Jaa, Panna Rittikrai
REPARTO: Tony Jaa, Primorata Dejudom, Dan Chupong, Nirut Sirichanya, Petchtai Wongkamlao, Sarunyu Wongkrachang, Sorapong Chatree, Chumphorn Thepphithak
PRODUCTORA: Iyara Films
GÉNERO: Acción | Artes marciales. Secuela
: http://www.imdb.com/title/tt1653690/






La leyenda de Ong Bak 3 comienza después de que Tien (Tony Jaa) haya perdido sus habilidades de combate y a su padrastro. Tien es devuelto a la vida con la ayuda de Pim (Primorata Dechudom), Mhen (Petchtai Wongkamlao) y los aldeanos de Khone Kana. Por medio de la meditación Tien vuelve a estar en plena forma para combatir el mal.
























La pelicula NO tiene ninguna marca... solo colocamos el nombre de esta web en las capturas






Código:
General
Format                                   : Matroska
Format version                           : Version 2
File size                                : 2.35 GiB
Duration                                 : 1h 38mn
Overall bit rate                         : 3 418 Kbps
Movie name                               : www.club-hd.com
Encoded date                             : UTC 2013-06-12 02:15:03
Writing application                      : mkvmerge v5.7.0 ('The Whirlwind') built on Jul  8 2012 20:08:51
Writing library                          : libebml v1.2.3 + libmatroska v1.3.0

Video
ID                                       : 1
Format                                   : AVC
Format/Info                              : Advanced Video Codec
Format profile                           : High@L4.1
Format settings, CABAC                   : Yes
Format settings, ReFrames                : 9 frames
Codec ID                                 : V_MPEG4/ISO/AVC
Duration                                 : 1h 38mn
Bit rate                                 : 2 782 Kbps
Width                                    : 1 280 pixels
Height                                   : 544 pixels
Display aspect ratio                     : 2.35:1
Frame rate mode                          : Constant
Frame rate                               : 24.000 fps
Color space                              : YUV
Chroma subsampling                       : 4:2:0
Bit depth                                : 8 bits
Scan type                                : Progressive
Bits/(Pixel*Frame)                       : 0.166
Stream size                              : 1.87 GiB (79%)
Title                                    : www.club-hd.com
Writing library                          : x264 core 129 r2245 bc13772
Language                                 : Thai
Default                                  : Yes
Forced                                   : No

Audio
ID                                       : 2
Format                                   : AC-3
Format/Info                              : Audio Coding 3
Mode extension                           : CM (complete main)
Format settings, Endianness              : Big
Codec ID                                 : A_AC3
Duration                                 : 1h 38mn
Bit rate mode                            : Constant
Bit rate                                 : 640 Kbps
Channel(s)                               : 6 channels
Channel positions                        : Front: L C R, Side: L R, LFE
Sampling rate                            : 48.0 KHz
Bit depth                                : 16 bits
Compression mode                         : Lossy
Stream size                              : 451 MiB (19%)
Title                                    : www.club-hd.com
Language                                 : Thai
Default                                  : Yes
Forced                                   : No

Text
ID                                       : 3
Format                                   : UTF-8
Codec ID                                 : S_TEXT/UTF8
Codec ID/Info                            : UTF-8 Plain Text
Title                                    : www.club-hd.com
Language                                 : Spanish
Default                                  : Yes
Forced                                   : No

Menu
00:59:59.500                             : en:Torture
01:08:21.167                             : en:The Sickness
01:14:03.708                             : en:A Vision
01:21:10.667                             : en:Execution
01:29:10.417                             : en:A Gift of Hope
01:38:37.958                             : en:Healing
01:48:22.542                             : en:Purpose
01:57:31.083                             : en:Evil Lurkes
02:08:39.500                             : en:Ravaged
02:15:19.000                             : en:The Vengeance
02:23:33.917                             : en:Justice








Enlaces de Mega y Google Drive solo disponibles para Miembros VIP

Compra tu Membresía VIP y apoya a Club-HD!

ATENCIÓN! Tenemos TODO el material de Club-HD disponible por Mega y Google Drive, enlaces 100% activos y online hasta la fecha

Llévate tus cuentas Mega PRO III gratis con tu membresía VIP!
Todos los posts vivos con links de Mega y Google Drive.
Todo el material de Club-HD desbloqueado y sin publicidad.

Click Aquí para más información.



Enlaces de Mega y Google Drive solo disponibles para Miembros VIP

Compra tu Membresía VIP y apoya a Club-HD!

ATENCIÓN! Tenemos TODO el material de Club-HD disponible por Mega y Google Drive, enlaces 100% activos y online hasta la fecha

Llévate tus cuentas Mega PRO III gratis con tu membresía VIP!
Todos los posts vivos con links de Mega y Google Drive.
Todo el material de Club-HD desbloqueado y sin publicidad.

Click Aquí para más información.



Para ver este contenido oculto, debes dar click en una de las siguientes reacciones : Like Like, Love Love, Haha Haha, Wow Wow, Sad Sad, Angry Angry
 
Última edición por un moderador:

bbto_77

Well-known member
Miembro VIP
Registro
2 Sep 2012
Mensajes
2.566
Edad
31
Ubicación
Guadalajara
Gracias, me llego esta, espero salga pronto en latino! Desc_g_ Gracias R22, Tercera parte genial
 

Usuarios Que Están Viendo Este Tema (Total: 1, Miembros: 0, Invitados: 1)

Quién Leyó Este Tema (Total Miembros: 3)

Arriba