Only God Forgives (2013) 720p BDRip Audio Inglés [Subt. Esp] (Thriller. Drama)

Maestro Revolver

Well-known member
Miembro del Staff
Administrador
Registro
9 Ago 2012
Mensajes
3.567








TÍTULO ORIGINAL: Only God Forgives
AÑO: 2013
DURACIÓN: 90 min.
PAÍS: Francia
DIRECTOR: Nicolas Winding Refn
GUIÓN: Nicolas Winding Refn
REPARTO: Ryan Gosling, Kristin Scott Thomas, Vithaya Pansringarm, Rhatha Phongam, Gordon Brown, Tom Burke, Sahajak Boonthanakit, Pitchawat Petchayahon, Charlie Ruedpokanon, Kovit Wattanakul, Wannisa Peungpa, Byron Gibson
PRODUCTORA: Coproducción Francia-Dinamarca; Gaumont / Wild Bunch / Film i Väst / Bold Films
GÉNERO: Thriller. Drama | Mafia. Drogas. Crimen. Venganza
: http://www.imdb.com/title/tt1602613/






En Bangkok, Julian, un fugitivo de la justicia estadounidense, dirige un club de boxeo tailandés que actúa como tapadera para su tráfico de estupefacientes. Su madre, jefe de una amplia organización criminal, desembarca procedente de Estados Unidos para repatriar el cuerpo de su hijo favorito, Billy: el hermano de Julian ha sido asesinado tras haber masacrado salvajemente a una joven prostituta. Llena de odio y venganza, exige a Julian la cabeza de los asesinos. Julian deberán entonces enfrentarse a Chang, un extraño policía jubilado, adulado por los demás policías.
























La pelicula NO tiene ninguna marca... solo colocamos el nombre de esta web en las capturas






Código:
General
Format                                   : Matroska
Format version                           : Version 2
File size                                : 3.14 GiB
Duration                                 : 1h 29mn
Overall bit rate                         : 5 024 Kbps
Movie name                               : www.club-hd.com
Encoded date                             : UTC 2013-09-25 23:00:35
Writing application                      : mkvmerge v5.7.0 ('The Whirlwind') built on Jul  8 2012 20:08:51
Writing library                          : libebml v1.2.3 + libmatroska v1.3.0

Video
ID                                       : 1
Format                                   : AVC
Format/Info                              : Advanced Video Codec
Format profile                           : High@L4.1
Format settings, CABAC                   : Yes
Format settings, ReFrames                : 9 frames
Codec ID                                 : V_MPEG4/ISO/AVC
Duration                                 : 1h 29mn
Bit rate                                 : 4 476 Kbps
Width                                    : 1 280 pixels
Height                                   : 692 pixels
Display aspect ratio                     : 1.85:1
Frame rate mode                          : Constant
Frame rate                               : 23.976 fps
Color space                              : YUV
Chroma subsampling                       : 4:2:0
Bit depth                                : 8 bits
Scan type                                : Progressive
Bits/(Pixel*Frame)                       : 0.211
Stream size                              : 2.80 GiB (89%)
Title                                    : www.club-hd.com
Writing library                          : x264 core 138 r2358 9e941d1
Language                                 : English
Default                                  : Yes
Forced                                   : No

Audio
ID                                       : 2
Format                                   : AC-3
Format/Info                              : Audio Coding 3
Mode extension                           : CM (complete main)
Format settings, Endianness              : Big
Codec ID                                 : A_AC3
Duration                                 : 1h 29mn
Bit rate mode                            : Constant
Bit rate                                 : 448 Kbps
Channel(s)                               : 6 channels
Channel positions                        : Front: L C R, Side: L R, LFE
Sampling rate                            : 48.0 KHz
Bit depth                                : 16 bits
Compression mode                         : Lossy
Stream size                              : 287 MiB (9%)
Title                                    : www.club-hd.com
Language                                 : English
Default                                  : Yes
Forced                                   : No

Text
ID                                       : 3
Format                                   : UTF-8
Codec ID                                 : S_TEXT/UTF8
Codec ID/Info                            : UTF-8 Plain Text
Title                                    : www.club-hd.com
Language                                 : Spanish
Default                                  : Yes
Forced                                   : No








Enlaces de Mega y Google Drive solo disponibles para Miembros VIP

Compra tu Membresía VIP y apoya a Club-HD!

ATENCIÓN! Tenemos TODO el material de Club-HD disponible por Mega y Google Drive, enlaces 100% activos y online hasta la fecha

Llévate tus cuentas Mega PRO III gratis con tu membresía VIP!
Todos los posts vivos con links de Mega y Google Drive.
Todo el material de Club-HD desbloqueado y sin publicidad.

Click Aquí para más información.


Para ver este contenido oculto, debes dar click en una de las siguientes reacciones : Like Like, Love Love, Haha Haha, Wow Wow, Sad Sad, Angry Angry



 
Última edición por un moderador:

DoomsDay Elite

Well-known member
Registro
5 Sep 2012
Mensajes
1.222
las ultimas 2 de Ryan Gosling fueron muy buenas espero que esta cumpla con la rache que se trae gracias master
 

Usuarios Que Están Viendo Este Tema (Total: 1, Miembros: 0, Invitados: 1)

Quién Leyó Este Tema (Total Miembros: 3)

Arriba