Open Season (2006) 720p BDRip Dual Latino-Inglés [Subt. Esp] (Animación)

Maestro Revolver

Administrador
Registro
9 Ago 2012
Mensajes
3.157
Reacciones (ptje)
54.886


Open-Season.jpg




FichaTecnica.jpg


TÍTULO ORIGINAL: Open Season
AÑO: 2006
DURACIÓN: 99 min.
PAÍS: USA
DIRECTOR: Roger Allers, Jill Culton, Anthony Stacchi
GUIÓN: Steve Bencich, Ron J. Friedman
REPARTO: Animation
PRODUCTORA: Sony Pictures
GÉNERO: Animación. Infantil. Comedia | Animales
imdb-logo.png
: http://www.imdb.com/title/tt0400717/




Sinopsis.jpg


Boog es un oso grizzly domesticado que vive con su cuidadora Beth y que está feliz a pesar de no vivir en el bosque, como los demás osos. Pero todo cambiará cuando conozca a Elliot, un ciervo salvaje de lo más parlanchín al que un malvado cazador ha atropellado dejándole sin un cuerno...




Trailer.jpg






Capturas.jpg


1.jpg


2.jpg


3.jpg


4.jpg


La pelicula NO tiene ninguna marca... solo colocamos el nombre de esta web en las capturas




MediaInfo.jpg


Código:
General
Format                                   : Matroska
Format version                           : Version 2
File size                                : 2.42 GiB
Duration                                 : 1h 26mn
Overall bit rate                         : 4 024 Kbps
Movie name                               : www.club-hd.com
Encoded date                             : UTC 2013-10-27 18:35:00
Writing application                      : mkvmerge v5.7.0 ('The Whirlwind') built on Jul  8 2012 20:08:51
Writing library                          : libebml v1.2.3 + libmatroska v1.3.0

Video
ID                                       : 1
Format                                   : AVC
Format/Info                              : Advanced Video Codec
Format profile                           : [email protected]
Format settings, CABAC                   : Yes
Format settings, ReFrames                : 7 frames
Codec ID                                 : V_MPEG4/ISO/AVC
Duration                                 : 1h 26mn
Bit rate                                 : 3 000 Kbps
Width                                    : 1 280 pixels
Height                                   : 692 pixels
Display aspect ratio                     : 1.85:1
Frame rate mode                          : Constant
Frame rate                               : 23.976 fps
Color space                              : YUV
Chroma subsampling                       : 4:2:0
Bit depth                                : 8 bits
Scan type                                : Progressive
Bits/(Pixel*Frame)                       : 0.141
Stream size                              : 1.76 GiB (73%)
Title                                    : www.club-hd.com
Writing library                          : x264 core 125 r2200 999b753
Language                                 : English
Default                                  : Yes
Forced                                   : No

Audio #1
ID                                       : 2
Format                                   : AC-3
Format/Info                              : Audio Coding 3
Mode extension                           : CM (complete main)
Format settings, Endianness              : Big
Codec ID                                 : A_AC3
Duration                                 : 1h 26mn
Bit rate mode                            : Constant
Bit rate                                 : 384 Kbps
Channel(s)                               : 6 channels
Channel positions                        : Front: L C R, Side: L R, LFE
Sampling rate                            : 44.1 KHz
Bit depth                                : 16 bits
Compression mode                         : Lossy
Stream size                              : 237 MiB (10%)
Title                                    : www.club-hd.com  >>  Latino
Language                                 : Spanish
Default                                  : Yes
Forced                                   : No

Audio #2
ID                                       : 3
Format                                   : AC-3
Format/Info                              : Audio Coding 3
Mode extension                           : CM (complete main)
Format settings, Endianness              : Big
Codec ID                                 : A_AC3
Duration                                 : 1h 26mn
Bit rate mode                            : Constant
Bit rate                                 : 640 Kbps
Channel(s)                               : 6 channels
Channel positions                        : Front: L C R, Side: L R, LFE
Sampling rate                            : 48.0 KHz
Bit depth                                : 16 bits
Compression mode                         : Lossy
Stream size                              : 395 MiB (16%)
Title                                    : www.club-hd.com  >>  Inglés
Language                                 : English
Default                                  : No
Forced                                   : No

Text
ID                                       : 4
Format                                   : UTF-8
Codec ID                                 : S_TEXT/UTF8
Codec ID/Info                            : UTF-8 Plain Text
Language                                 : Spanish
Default                                  : No
Forced                                   : No




Descarga.jpg



MEGA.jpg

Tenemos TODO el material de Club-HD disponible por Mega, enlaces 100% activos y online hasta la fecha

Llévate tus cuentas Mega PRO III gratis con tu membresía VIP!
Todos los posts vivos con links de Mega.
Todo el material de Club-HD desbloqueado y sin publicidad.

Obtén más información sobre nuestras Membresías VIP


 
Última edición por un moderador:
gracias por la pelicula, es bastante comica y buena para ver en familia :dplgar:
 
Increible para completar la coleccion. Solo me restan Flushed Away y Vecinos Invasores ambas en latino, ya q las tengo en hd pero solo con subs. Mil graciasssss
 
La verdad no me he visto ninguna de estas, pero nunca es tarde para empezar :aplausos: Muchas gracias Revol !!
 
Volver