Oppenheimer (2023) IMAX 2160p HDR BDRip Latino-Inglés [Subt. Esp] (Drama. Thriller)

Brady

The G.O.A.T.
Moderador
Uploader
1 Jun 2016
3.243
75.585
Oppenheimer (2023) IMAX 2160p HDR BDRip Latino-Inglés [Subt. Esp] (Drama. Thriller)


Sinopsis
En tiempos de guerra, el brillante físico estadounidense Julius Robert Oppenheimer (Cillian Murphy), al frente del "Proyecto Manhattan", lidera los ensayos nucleares para construir la bomba atómica para su país. Impactado por su poder destructivo, Oppenheimer se cuestiona las consecuencias morales de su creación. Desde entonces y el resto de su vida, se opondría firmemente al uso de armas nucleares.


Un agradecimiento muy especial para nuestro Amigo Oniros por el audio latino del Bluray


MEDIAINFO
Código:
General
Unique ID                                : 84587887436609192504214589913112763378 (0x3FA308D7437CF21E1A049754FD57DBF2)
Format                                   : Matroska
Format version                           : Version 4
File size                                : 36.6 GiB
Duration                                 : 3 h 0 min
Overall bit rate mode                    : Variable
Overall bit rate                         : 29.0 Mb/s
Frame rate                               : 23.976 FPS
Encoded date                             : 2023-11-16 05:23:28 UTC
Writing application                      : mkvmerge v49.0.0 ('Sick Of Losing Soulmates') 64-bit
Writing library                          : libebml v1.4.0 + libmatroska v1.6.1
Uploader                                 : Brady
Web                                      : www.club-hd.com

Video
ID                                       : 1
Format                                   : HEVC
Format/Info                              : High Efficiency Video Coding
Format profile                           : Main [email protected]@High
HDR format                               : SMPTE ST 2086, HDR10 compatible
Codec ID                                 : V_MPEGH/ISO/HEVC
Duration                                 : 3 h 0 min
Bit rate                                 : 24.6 Mb/s
Width                                    : 3 840 pixels
Height                                   : 2 160 pixels
Display aspect ratio                     : 16:9
Frame rate mode                          : Constant
Frame rate                               : 23.976 (24000/1001) FPS
Color space                              : YUV
Chroma subsampling                       : 4:2:0 (Type 2)
Bit depth                                : 10 bits
Bits/(Pixel*Frame)                       : 0.124
Stream size                              : 31.1 GiB (85%)
Writing library                          : x265 3.5+1-f0c1022b6:[Windows][GCC 10.2.0][64 bit] 10bit
Encoding settings                        : cpuid=1111039 / frame-threads=6 / numa-pools=32 / wpp / no-pmode / no-pme / no-psnr / no-ssim / log-level=2 / input-csp=1 / input-res=3840x2160 / interlace=0 / total-frames=0 / level-idc=51 / high-tier=1 / uhd-bd=0 / ref=4 / no-allow-non-conformance / repeat-headers / annexb / no-aud / no-eob / no-eos / no-hrd / info / hash=0 / no-temporal-layers / open-gop / min-keyint=24 / keyint=240 / gop-lookahead=0 / bframes=8 / b-adapt=2 / b-pyramid / bframe-bias=0 / rc-lookahead=150 / lookahead-slices=4 / scenecut=40 / no-hist-scenecut / radl=0 / no-splice / no-intra-refresh / ctu=64 / min-cu-size=8 / no-rect / no-amp / max-tu-size=32 / tu-inter-depth=1 / tu-intra-depth=1 / limit-tu=0 / rdoq-level=2 / dynamic-rd=0.00 / no-ssim-rd / signhide / no-tskip / nr-intra=0 / nr-inter=0 / no-constrained-intra / no-strong-intra-smoothing / max-merge=3 / limit-refs=3 / limit-modes / me=3 / subme=5 / merange=57 / temporal-mvp / no-frame-dup / no-hme / weightp / weightb / no-analyze-src-pics / deblock=-3:-2 / no-sao / no-sao-non-deblock / rd=4 / selective-sao=0 / no-early-skip / no-rskip / no-fast-intra / no-tskip-fast / no-cu-lossless / no-b-intra / no-splitrd-skip / rdpenalty=0 / psy-rd=1.15 / psy-rdoq=3.00 / no-rd-refine / no-lossless / cbqpoffs=-2 / crqpoffs=-2 / rc=crf / crf=15.0 / qcomp=0.60 / qpstep=4 / stats-write=0 / stats-read=0 / vbv-maxrate=25000 / vbv-bufsize=50000 / vbv-init=0.9 / min-vbv-fullness=50.0 / max-vbv-fullness=80.0 / crf-max=0.0 / crf-min=0.0 / ipratio=1.30 / pbratio=1.20 / aq-mode=3 / aq-strength=0.80 / no-cutree / zone-count=0 / no-strict-cbr / qg-size=32 / no-rc-grain / qpmax=69 / qpmin=0 / no-const-vbv / sar=1 / overscan=0 / videoformat=5 / range=0 / colorprim=9 / transfer=16 / colormatrix=9 / chromaloc=1 / chromaloc-top=2 / chromaloc-bottom=2 / display-window=0 / master-display=G(13250,34500)B(7500,3000)R(34000,16000)WP(15635,16450)L(10000000,50) / cll=186,147 / min-luma=0 / max-luma=1023 / log2-max-poc-lsb=8 / vui-timing-info / vui-hrd-info / slices=1 / no-opt-qp-pps / no-opt-ref-list-length-pps / no-multi-pass-opt-rps / scenecut-bias=0.05 / no-opt-cu-delta-qp / no-aq-motion / no-sbrc / hdr10 / hdr10-opt / no-dhdr10-opt / no-idr-recovery-sei / analysis-reuse-level=0 / analysis-save-reuse-level=0 / analysis-load-reuse-level=0 / scale-factor=0 / refine-intra=0 / refine-inter=0 / refine-mv=1 / refine-ctu-distortion=0 / no-limit-sao / ctu-info=0 / no-lowpass-dct / refine-analysis-type=0 / copy-pic=1 / max-ausize-factor=1.0 / no-dynamic-refine / no-single-sei / no-hevc-aq / no-svt / no-field / qp-adaptation-range=1.00 / scenecut-aware-qp=0conformance-window-offsets / right=0 / bottom=0 / decoder-max-rate=0 / no-vbv-live-multi-pass / no-mcstf
Language                                 : English
Default                                  : Yes
Forced                                   : No
Color range                              : Limited
Color primaries                          : BT.2020
Transfer characteristics                 : PQ
Matrix coefficients                      : BT.2020 non-constant
Mastering display color primaries        : Display P3
Mastering display luminance              : min: 0.0050 cd/m2, max: 1000 cd/m2
Maximum Content Light Level              : 186
MaxCLL_Original                          : 186 cd/m2
Maximum Frame-Average Light Level        : 147
MaxFALL_Original                         : 147 cd/m2

Audio #1
ID                                       : 2
Format                                   : DTS
Format/Info                              : Digital Theater Systems
Codec ID                                 : A_DTS
Duration                                 : 3 h 0 min
Bit rate mode                            : Constant
Bit rate                                 : 768 kb/s
Channel(s)                               : 6 channels
Channel layout                           : C L R Ls Rs LFE
Sampling rate                            : 48.0 kHz
Frame rate                               : 93.750 FPS (512 SPF)
Bit depth                                : 24 bits
Compression mode                         : Lossy
Stream size                              : 991 MiB (3%)
Title                                    : Latino
Language                                 : Spanish
Default                                  : Yes
Forced                                   : No

Audio #2
ID                                       : 3
Format                                   : DTS XLL
Format/Info                              : Digital Theater Systems
Commercial name                          : DTS-HD Master Audio
Codec ID                                 : A_DTS
Duration                                 : 3 h 0 min
Bit rate mode                            : Variable
Bit rate                                 : 3 567 kb/s
Channel(s)                               : 6 channels
Channel layout                           : C L R Ls Rs LFE
Sampling rate                            : 48.0 kHz
Frame rate                               : 93.750 FPS (512 SPF)
Bit depth                                : 24 bits
Compression mode                         : Lossless
Stream size                              : 4.49 GiB (12%)
Title                                    : Ingles
Language                                 : English
Default                                  : No
Forced                                   : No

Text #1
ID                                       : 4
Format                                   : UTF-8
Codec ID                                 : S_TEXT/UTF8
Codec ID/Info                            : UTF-8 Plain Text
Duration                                 : 2 h 52 min
Bit rate                                 : 81 b/s
Frame rate                               : 0.275 FPS
Count of elements                        : 2842
Stream size                              : 103 KiB (0%)
Title                                    : Latino
Language                                 : Spanish
Default                                  : No
Forced                                   : No

Text #2
ID                                       : 5
Format                                   : UTF-8
Codec ID                                 : S_TEXT/UTF8
Codec ID/Info                            : UTF-8 Plain Text
Duration                                 : 2 h 13 min
Bit rate                                 : 0 b/s
Frame rate                               : 0.003 FPS
Count of elements                        : 24
Stream size                              : 925 Bytes (0%)
Title                                    : Forzados
Language                                 : Spanish
Default                                  : Yes
Forced                                   : No

Text #3
ID                                       : 6
Format                                   : PGS
Muxing mode                              : zlib
Codec ID                                 : S_HDMV/PGS
Codec ID/Info                            : Picture based subtitle format used on BDs/HD-DVDs
Duration                                 : 2 h 59 min
Bit rate                                 : 55.4 kb/s
Frame rate                               : 0.548 FPS
Count of elements                        : 5892
Stream size                              : 71.1 MiB (0%)
Title                                    : Latino
Language                                 : Spanish
Default                                  : No
Forced                                   : No

Text #4
ID                                       : 7
Format                                   : PGS
Muxing mode                              : zlib
Codec ID                                 : S_HDMV/PGS
Codec ID/Info                            : Picture based subtitle format used on BDs/HD-DVDs
Duration                                 : 2 h 59 min
Bit rate                                 : 259 b/s
Frame rate                               : 0.003 FPS
Count of elements                        : 28
Stream size                              : 340 KiB (0%)
Title                                    : Forzados
Language                                 : Spanish
Default                                  : No
Forced                                   : No

Text #5
ID                                       : 8
Format                                   : PGS
Muxing mode                              : zlib
Codec ID                                 : S_HDMV/PGS
Codec ID/Info                            : Picture based subtitle format used on BDs/HD-DVDs
Duration                                 : 2 h 53 min
Bit rate                                 : 61.7 kb/s
Frame rate                               : 0.594 FPS
Count of elements                        : 6172
Stream size                              : 76.4 MiB (0%)
Title                                    : Ingles
Language                                 : English
Default                                  : No
Forced                                   : No

CAPTURAS

Oppenheimer (2023) IMAX 2160p HDR BDRip Latino-Inglés [Subt. Esp] (Drama. Thriller)

Oppenheimer (2023) IMAX 2160p HDR BDRip Latino-Inglés [Subt. Esp] (Drama. Thriller)

Oppenheimer (2023) IMAX 2160p HDR BDRip Latino-Inglés [Subt. Esp] (Drama. Thriller)

DESCARGA
Todos los links son Intercambiables!

Oppenheimer (2023) IMAX 2160p HDR BDRip Latino-Inglés [Subt. Esp] (Drama. Thriller)


Enlaces de Mega solo disponibles para Miembros VIP

Compra tu Membresía VIP y apoya a Club-HD!

ATENCIÓN! Tenemos TODO el material de Club-HD disponible por Mega, enlaces 100% activos y online hasta la fecha

Llévate tus cuentas Mega PRO III gratis con tu membresía VIP!
Todos los posts vivos con links de Mega.
Todo el material de Club-HD desbloqueado y sin publicidad.

Click Aquí para más información.
Oppenheimer (2023) IMAX 2160p HDR BDRip Latino-Inglés [Subt. Esp] (Drama. Thriller)

Click aquí para descargar desde Fireload

Oppenheimer (2023) IMAX 2160p HDR BDRip Latino-Inglés [Subt. Esp] (Drama. Thriller)


Para ver este contenido oculto, debes dar click en el botón "Like", o cualquiera de las otras reacciones:

Me Gusta Me Gusta, Me Encanta Me Encanta, Jaja Jaja, Wow Wow, Triste Triste, Molesto Molesto
CONTRASEÑA
Código:
www.club-hd.com
 
26 Feb 2016
85
0
"This file is available with Premium only. Reason: the file's owner disabled free downloads."

muchas gracias eh! @Brady ¿que ganas con ponerte asi la gorra?
 

Max

Admin
Administrador
8 Ago 2012
5.964
26.220
"This file is available with Premium only. Reason: the file's owner disabled free downloads."

muchas gracias eh! @Brady ¿que ganas con ponerte asi la gorra?
Hola @boamax,

El equipo decidiódesactivar las descargas free de Nitroflare porque solo deja descargar a unos 20 o 30 kbps, y eso nos pareció una muy mala broma de parte de Nitro. Por eso ahora lo tenemos SOLO como filehost premium.

Un cordial saludo y disculpa si te causamos una molestia.
 
Arriba