• Este aviso va dirigido a todos los nuevos miembros recien llegados a Club-HD. Les recordamos que la direccion URL de este sitio web es , asi que deben acceder únicamente por esta URL. Sean todos bienvenidos al Club!

Orígenes Secretos (2020) 1080p NF WEB-DL Castellano (Thriller)

Dante Inferno

🔥Dante Inferno🔥
Miembro del Staff
Moderador
Uploader
Registrado
24 May 2016
Mensajes
618
Puntos de reacción
12,967
Puntos
93
Ubicación
Argentina
Sitio web
club-hd.com



Otro títulos: Secret Origins


SINOPSIS

Madrid 2019. Un asesino en serie está sembrando el caos. Personas anónimas están siendo asesinadas imitando las primeras apariciones de los súper héroes más conocidos. Cosme es el mejor detective de su comisaría, y está a punto de jubilarse contra su voluntad. David es su relevo, y es joven e impulsivo. Ambos tendrán la misión de encajar las piezas en un juego del que desconocen las reglas. En su aventura contarán con la ayuda de Jorge Elías, hijo de Cosme, entrañable friki y dueño de una tienda de cómics y de Norma, jefa de ambos y amante del manga y del cosplay. Dicen que algunas veces hay que ponerse el traje y salir a hacer de este mundo un lugar mejor. Puede que esta sea una de ellas.

MÁS INFORMACIÓN




TRAILER



CAPTURAS




MEDIAINFO

General
Complete name : Orígenes Secretos (2020) 1080p NF WEB-DL Castellano.mkv
Format : Matroska
Format version : Version 4
File size : 3.15 GiB
Duration : 1 h 36 min
Overall bit rate mode : Variable
Overall bit rate : 4 652 kb/s
Movie name : Orígenes Secretos (2020) 1080p NF WEB-DL Castellano [www.club-hd.com]
Encoded date : UTC 2020-09-13 17:54:14
Writing application : mkvmerge v49.0.0 ('Sick Of Losing Soulmates') 64-bit
Writing library : libebml v1.4.0 + libmatroska v1.6.1

Video
ID : 1
Format : AVC
Format/Info : Advanced Video Codec
Format profile : Main@L4
Format settings : CABAC / 3 Ref Frames
Format settings, CABAC : Yes
Format settings, Reference frames : 3 frames
Codec ID : V_MPEG4/ISO/AVC
Duration : 1 h 36 min
Bit rate mode : Variable
Bit rate : 4 020 kb/s
Maximum bit rate : 6 030 kb/s
Width : 1 920 pixels
Height : 1 080 pixels
Display aspect ratio : 16:9
Frame rate mode : Constant
Frame rate : 24.000 FPS
Color space : YUV
Chroma subsampling : 4:2:0
Bit depth : 8 bits
Scan type : Progressive
Bits/(Pixel*Frame) : 0.081
Stream size : 2.72 GiB (86%)
Title : Orígenes Secretos (2020) 1080p NF WEB-DL Castellano
Writing library : x264 core 148 r2721 6d200cf
Language : Spanish
Default : Yes
Forced : No

Audio
ID : 2
Format : E-AC-3
Format/Info : Enhanced AC-3
Commercial name : Dolby Digital Plus
Codec ID : A_EAC3
Duration : 1 h 36 min
Bit rate mode : Constant
Bit rate : 640 kb/s
Channel(s) : 6 channels
Channel layout : L R C LFE Ls Rs
Sampling rate : 48.0 kHz
Frame rate : 31.250 FPS (1536 SPF)
Compression mode : Lossy
Stream size : 444 MiB (14%)
Title : Castellano
Language : Spanish
Service kind : Complete Main
Default : Yes
Forced : No


CONTRASEÑA





Disponible
⭐¡VER ONLINE y DESCARGAR 1 LINK!⭐


Enlaces de Mega y Google Drive solo disponibles para Miembros VIP

Compra tu Membresía VIP y apoya a Club-HD!

ATENCIÓN! Tenemos TODO el material de Club-HD disponible por Mega y Google Drive, enlaces 100% activos y online hasta la fecha

Llévate tus cuentas Mega PRO II gratis con tu membresía VIP!
Todos los posts vivos con links de Mega y Google Drive.
Todo el material de Club-HD desbloqueado y sin publicidad.

Click Aquí para más información.

DESCARGAR



Enlaces de Mega y Google Drive solo disponibles para Miembros VIP

Compra tu Membresía VIP y apoya a Club-HD!

ATENCIÓN! Tenemos TODO el material de Club-HD disponible por Mega y Google Drive, enlaces 100% activos y online hasta la fecha

Llévate tus cuentas Mega PRO II gratis con tu membresía VIP!
Todos los posts vivos con links de Mega y Google Drive.
Todo el material de Club-HD desbloqueado y sin publicidad.

Click Aquí para más información.



Para ver este contenido oculto, debes dar click en una de las siguientes reacciones: Like Like, Love Love, Haha Haha, Wow Wow, Sad Sad, Angry Angry



Para ver este contenido oculto, debes dar click en una de las siguientes reacciones: Like Like, Love Love, Haha Haha, Wow Wow, Sad Sad, Angry Angry



Para ver este contenido oculto, debes dar click en una de las siguientes reacciones: Like Like, Love Love, Haha Haha, Wow Wow, Sad Sad, Angry Angry



Para ver este contenido oculto, debes dar click en una de las siguientes reacciones: Like Like, Love Love, Haha Haha, Wow Wow, Sad Sad, Angry Angry
 

Usuarios Que Están Viendo Este Tema (Total: 1, Miembros: 0, Invitados: 1)

Arriba