P.S. I Love You (2007) 720p BDRip Dual Latino-Inglés [Subt. Esp] (Romance. Drama)

Max

Admin

Administrador
Registro
8 Ago 2012
Mensajes
6.190
Reacciones (ptje)
26.868

P_S_I_Love_You_POSTER.jpg



Título original: P.S., I Love You
Título en Latino: Posdata, Te Amo
Año: 2007
Duración: 126 min.
País: Estados Unidos
Director: Richard LaGravenese
Guión: Richard LaGravenese, Steven Rogers (Novela: Cecelia Ahern)
Música: John Powell
Fotografía: Terry Stacey
Reparto: Hilary Swank, Gerard Butler, Lisa Kudrow, Harry Connick Jr., Gina Gershon, Jeffrey Dean Morgan, Kathy Bates, James Marsters, Christopher Whalen, Dean Winters
Productora: Warner. Bros. Pictures / Alcon Entertainment / Grosvenor Park Productions / Wendy Finerman Productions
Género: Romance. Drama. Comedia | Drama romántico

IMDb.png
http://www.imdb.com/title/tt0431308/?ref_=fn_al_tt_1




SINOPSIS.png


Holly Kennedy (Hilary Swank) es una joven viuda que trata de encauzar nuevamente su vida tras la muerte de su querido marido Gerry (Gerard Butler), al que amaba sobre todas las cosas. Pero un día, con motivo de su 30 cumpleaños, descubre que éste le ha dejado varias cartas, todas con la misma postdata: PD: Te quiero. Obsesionada con las misivas y su contenido, la madre de Holly (Kathy Bates) y sus mejores amigas Sharon (Gina Gershon) y Denise (Lisa Kudrow) comienzan a pensar que se está aferrando demasiado a un pasado que nunca volverá.




YOUTUBE_LOGO.png






CAPTURAS.png


P_S_I_Love_You_CAPTURA-1.jpg


P_S_I_Love_You_CAPTURA-2.jpg


P_S_I_Love_You_CAPTURA-3.jpg


P_S_I_Love_You_CAPTURA-4.jpg


P_S_I_Love_You_CAPTURA-5.jpg


P_S_I_Love_You_CAPTURA-6.jpg


P_S_I_Love_You_CAPTURA-7.jpg


P_S_I_Love_You_CAPTURA-8.jpg


P_S_I_Love_You_CAPTURA-9.jpg


P_S_I_Love_You_CAPTURA-10.jpg





DATOS_TECNICOS.png


Código:
General
Complete name                            : P.S. I Love You (2007) 720p BDRip Dual Latino-Inglés [Subt. Esp].mkv
Format                                   : Matroska
Format version                           : Version 2
File size                                : 4.18 GiB
Duration                                 : 2h 6mn
Overall bit rate                         : 4 747 Kbps
Movie name                               : www.club-hd.com --> P.S. I Love You (2007) 720p BDRip Dual Latino-Inglés [Subt. Esp]
Encoded date                             : UTC 2013-08-19 19:56:29
Writing application                      : mkvmerge v5.8.0 ('No Sleep / Pillow') built on Sep  2 2012 15:37:04
Writing library                          : libebml v1.2.3 + libmatroska v1.3.0

Video
ID                                       : 1
Format                                   : AVC
Format/Info                              : Advanced Video Codec
Format profile                           : [email protected]
Format settings, CABAC                   : Yes
Format settings, ReFrames                : 4 frames
Muxing mode                              : Header stripping
Codec ID                                 : V_MPEG4/ISO/AVC
Duration                                 : 2h 6mn
Bit rate                                 : 4 000 Kbps
Width                                    : 1 280 pixels
Height                                   : 720 pixels
Display aspect ratio                     : 16:9
Frame rate mode                          : Constant
Frame rate                               : 23.976 fps
Color space                              : YUV
Chroma subsampling                       : 4:2:0
Bit depth                                : 8 bits
Scan type                                : Progressive
Bits/(Pixel*Frame)                       : 0.181
Stream size                              : 3.36 GiB (80%)
Title                                    : P.S. I Love You (2007) 720p BDRip Dual Latino-Inglés [Subt. Esp]
Writing library                          : x264 core 120
Encoding settings                        : cabac=1 / ref=5 / deblock=1:-2:-2 / analyse=0x3:0x133 / me=umh / subme=10 / psy=1 / psy_rd=1.00:0.00 / mixed_ref=1 / me_range=24 / chroma_me=1 / trellis=2 / 8x8dct=1 / cqm=0 / deadzone=21,11 / fast_pskip=1 / chroma_qp_offset=-2 / threads=24 / sliced_threads=0 / nr=0 / decimate=1 / interlaced=0 / bluray_compat=0 / constrained_intra=0 / bframes=3 / b_pyramid=1 / b_adapt=1 / b_bias=0 / direct=1 / weightb=1 / open_gop=0 / weightp=2 / keyint=240 / keyint_min=24 / scenecut=40 / intra_refresh=0 / rc_lookahead=50 / rc=abr / mbtree=1 / bitrate=4000 / ratetol=1.0 / qcomp=0.60 / qpmin=3 / qpmax=69 / qpstep=4 / ip_ratio=1.40 / aq=1:1.00
Language                                 : English
Default                                  : Yes
Forced                                   : No
Color primaries                          : BT.709
Transfer characteristics                 : BT.709
Matrix coefficients                      : BT.709

Audio #1
ID                                       : 2
Format                                   : AC-3
Format/Info                              : Audio Coding 3
Mode extension                           : CM (complete main)
Format settings, Endianness              : Big
Muxing mode                              : Header stripping
Codec ID                                 : A_AC3
Duration                                 : 2h 6mn
Bit rate mode                            : Constant
Bit rate                                 : 384 Kbps
Channel(s)                               : 6 channels
Channel positions                        : Front: L C R, Side: L R, LFE
Sampling rate                            : 48.0 KHz
Bit depth                                : 16 bits
Compression mode                         : Lossy
Stream size                              : 346 MiB (8%)
Title                                    : P.S. I Love You (2007) - Español Latino AC3 5.1
Language                                 : Spanish
Default                                  : Yes
Forced                                   : No

Audio #2
ID                                       : 3
Format                                   : AC-3
Format/Info                              : Audio Coding 3
Mode extension                           : CM (complete main)
Format settings, Endianness              : Big
Muxing mode                              : Header stripping
Codec ID                                 : A_AC3
Duration                                 : 2h 6mn
Bit rate mode                            : Constant
Bit rate                                 : 448 Kbps
Channel(s)                               : 6 channels
Channel positions                        : Front: L C R, Side: L R, LFE
Sampling rate                            : 48.0 KHz
Bit depth                                : 16 bits
Compression mode                         : Lossy
Stream size                              : 404 MiB (9%)
Title                                    : P.S. I Love You (2007) - Inglés AC3 5.1
Language                                 : English
Default                                  : No
Forced                                   : No

Text
ID                                       : 4
Format                                   : UTF-8
Codec ID                                 : S_TEXT/UTF8
Codec ID/Info                            : UTF-8 Plain Text
Title                                    : P.S. I Love You (2007) - Subtítulos Español
Language                                 : Spanish
Default                                  : No
Forced                                   : No




DESCARGA.png



MEGA.jpg

Tenemos TODO el material de Club-HD disponible por Mega, enlaces 100% activos y online hasta la fecha

Llévate tus cuentas Mega PRO III gratis con tu membresía VIP!
Todos los posts vivos con links de Mega.
Todo el material de Club-HD desbloqueado y sin publicidad.

Obtén más información sobre nuestras Membresías VIP


UPLOADED_BANNER.png


Para ver este contenido oculto, debes dar click en el botón"Like", o cualquiera de las otras reacciones:

Me Gusta Me Gusta, Me Encanta Me Encanta, Jaja Jaja, Wow Wow, Triste Triste, Molesto Molesto

 
Última edición:
Desc_g_

Excelente!! :dplgar:

Esta película me la han pedido algunas amigas, sirve de que aprovecho y quizá la veo con ellas jaja

Gracias!!!

Saludos :D
 
Excelente Max para verla con mi esposa, Película Romántica saludos . :dplgar:
 
  • Me Gusta
Reacciones: Max
Volver